Ссылка на приватное зеркало нашего сайта всего за 1$. Внимание количество ограничено!!!

2 сезон

iTunes

1 сезон

1

2 сезон

2 сезон

iTunes

1 сезон

RePack

30

Новинка

ВАЖНО

ИГРА 18+

pack

RePack

MK11
pack

Забери бонус

RePack

jed

!!Акция!!

Alien_Rage

RePack

fifa19

RePack

Assassins Creed: Odyssey

RePack

NEED FOR SPEED™ PAYBACK

4 сезон

9 сезон

Бесстыжие 9 сезон

Все сериалы

все сериалы на PB.wtf

RePack

FAR CRY 5
  

Проект «Синяя книга» / Project Blue Book / Сезон: 1 / Серии: 1-10 из 10 (Роберт Стромберг, Норма Бэйли, Алекс Грейвз) [2019, Детектив, история, реальные события, WEB-DL 1080p] [MVO] (TVShows) pb.wtf

Проект «Синяя книга» через торрент pb.wtf

Размер: 18.99 GB | Добавлен: 1 год 8 мес. назад | Торрент скачан:9 раз
Скачать  

17-01-2019 12:47 Проект «Синяя книга» Скачать торрент  

Проект «Синяя книга» / Project Blue Book
Информация о сериале

Год выпуска: 2019
Жанр: Детектив, история, реальные события
Страна: США
Продолжительность: 1 x ~ 00:45:00
Перевод: Профессиональный (многоголосый) *TVShows*
Субтитры: английские

Режиссер: Роберт Стромберг, Норма Бэйли, Алекс Грейвз

В ролях: Эйден Гиллен, Майкл Маларки, Лора Меннелл, Ксения Соло, Майкл Харни, Нил МакДонаф

О фильме: Пятидесятые годы прошлого века. Астроном Дж. Аллен Хинек и капитан ВВС США Майкл Квинн разбираются со свидетельствами появления НЛО. В ходе расследования они натыкаются на правительственный заговор, скрывающий от населения правду.



ratingскриншот  

Файл
Кодек: x264 (AVC)
Качество: WEB-DL 1080p
Видео: MPEG-4 AVC, ~ 3300 Кбит/с, 1920x960
Звук 1: Russian: 48 kHz, AC3, 2/0 (L,R) ch, ~192 kbps avg |TVShows|
Звук 2: English: 48 kHz, E-AC3, 2/0 (L,R) ch, ~224 kbps avg
скриншот  скриншот  скриншот  скриншот  
General
Unique ID : 168549677383148344833835358288231485283 (0x7ECD7CB133EFD7B15ACBEA542D9B4F63)
Complete name : F:\Project.Blue.Book.S01.1080p.TVShows\Project.Blue.Book.S01E01.1080p.TVShows.mkv
Format : Matroska
Format version : Version 4 / Version 2
File size : 1.17 GiB
Duration : 44 min 16 s
Overall bit rate : 3 791 kb/s
Encoded date : UTC 2019-01-17 09:54:27
Writing application : mkvmerge v29.0.0 ('Like It Or Not') 64-bit
Writing library : libebml v1.3.6 + libmatroska v1.4.9

Video
ID : 1
Format : AVC
Format/Info : Advanced Video Codec
Format profile : High@L4
Format settings : CABAC / 4 Ref Frames
Format settings, CABAC : Yes
Format settings, RefFrames : 4 frames
Codec ID : V_MPEG4/ISO/AVC
Duration : 44 min 16 s
Bit rate : 3 299 kb/s
Width : 1 920 pixels
Height : 960 pixels
Display aspect ratio : 2.000
Frame rate mode : Constant
Frame rate : 23.976 (24000/1001) FPS
Color space : YUV
Chroma subsampling : 4:2:0
Bit depth : 8 bits
Scan type : Progressive
Bits/(Pixel*Frame) : 0.075
Stream size : 1.02 GiB (87%)
Default : Yes
Forced : No
Color range : Limited
Color primaries : BT.709
Transfer characteristics : BT.709
Matrix coefficients : BT.709

Audio #1
ID : 2
Format : AC-3
Format/Info : Audio Coding 3
Format settings, Endianness : Big
Codec ID : A_AC3
Duration : 44 min 16 s
Bit rate mode : Constant
Bit rate : 192 kb/s
Channel(s) : 2 channels
Channel positions : Front: L R
Sampling rate : 48.0 kHz
Frame rate : 31.250 FPS (1536 SPF)
Bit depth : 16 bits
Compression mode : Lossy
Stream size : 60.8 MiB (5%)
Title : TVShows
Language : Russian
Service kind : Complete Main
Default : Yes
Forced : Yes

Audio #2
ID : 3
Format : E-AC-3
Format/Info : Enhanced Audio Coding 3
Format settings, Endianness : Big
Codec ID : A_EAC3
Duration : 44 min 16 s
Bit rate mode : Constant
Bit rate : 224 kb/s
Channel(s) : 2 channels
Channel positions : Front: L R
Sampling rate : 48.0 kHz
Frame rate : 187.500 FPS (256 SPF)
Compression mode : Lossy
Stream size : 70.9 MiB (6%)
Title : Original
Language : English
Service kind : Complete Main
Default : No
Forced : No

Text
ID : 4
Format : UTF-8
Codec ID : S_TEXT/UTF8
Codec ID/Info : UTF-8 Plain Text
Title : English
Language : English
Default : No
Forced : No

Внимание! Раздача ведётся путём добавления новых серий; при каждом добавлении создаётся новый торрент. Чтобы начать докачку новой серии, пользователям необходимо сделать следующее:
(1) остановить скачивание,
(2) удалить старый торрент у себя из клиента (старые серии удалять не надо),
(3) скачать новый торрент и запустить его у себя в клиенте вместо старого, при этом указать клиенту путь в старую папку куда и должно происходить скачивание новых серий.
Ваш клиент при этом должен произвести хеширование (проверку) старой папки (если не производит сам - помогите ему сделать это), и будет докачивать только те серии которых у вас ещё нет. Старые серии при этом не удаляются, а продолжают раздаваться!
Eсли вы уже удалили старые серии, то предотвратить повторную закачку старых серий можно, отжав галочку в соответствующих местах при запуске нового торрента. По возможности, желательно не удалять старые серии как можно дольше чтобы релизёр не столько продолжал раздавать старые серии, а смог сконцентрироваться на новых.
pb.wtf



Скачать Проект «Синяя книга» через торрент https://i106.fastpic.ru/big/2019/0108/cc/98630f8d5fcd91e433a5510ca3e36bcc.jpg Скачать фильм Проект «Синяя книга» через торрент бесплантно в хорошем качестве О фильме: Пятидесятые годы прошлого века. Астроном Дж. Аллен Хинек и капитан ВВС США Майкл Квинн разбираются со свидетельствами появления ... 6.4 10 5
Торрент: Зарегистрирован [2019-03-19 08:41] · скачан: 9 раз
Статус: √ проверено
Размер: 18.99 GB
Как cкачать? Как скачать Проект «Синяя книга» через торрент | qTorrent

% Раздел Тема Автор DL S | L
Зарубежные сериалы [ 10.97 GB ] Проект засекречен / Проект "Синяя книга" / Project Blue Book / Сезон: 2 / Серия: 1-10 из 10 [2020 WEB-DL 720p] MVO [AlexFilm] bober100 Скачать
2 | 0
Зарубежные сериалы [ 6.09 GB ] Проект засекречен / Проект "Синяя книга" / Project Blue Book / Сезон: 2 / Серия: 1-9 из 10 [2020 WEB-DLRip] MVO [TVShows] bober100 Скачать
1 | 0
Зарубежные сериалы [ 11.17 GB ] Проект «Синяя книга» / Проект засекречен / Project Blue Book / Сезон: 2 / Серии: 1-10 из 10 [2020 WEB-DL 720p] [MVO] killermax2013 Скачать
1 | 0
Зарубежные сериалы [ 21.8 GB ] Проект «Синяя книга» / Проект засекречен / Project Blue Book / Сезон: 2 / Серии: 1-10 из 10 [2020 WEB-DL 1080p] [MVO] killermax2013 Скачать
1 | 0
Зарубежные сериалы [ 619 MB ] Проект засекречен / Проект "Синяя книга" / Project Blue Book / Сезон: 2 / Серия: 1- из 10 [2020 WEB-DLRip] MVO [Кириллица] bober100 Скачать
1 | 0
Зарубежные сериалы [ 6.15 GB ] Проект засекречен / Проект "Синяя книга" / Project Blue Book / Сезон: 2 / Серия: 1-10 из 10 [2020 WEB-DLRip] MVO [Lostfilm] bober100 Скачать
2 | 0
Зарубежные сериалы [ 21.02 GB ] Проект засекречен / Проект "Синяя книга" / Project Blue Book / Сезон: 2 / Серия: 1-10 из 10 [2020 WEB-DL 1080p] MVO [Кириллица] bober100 Скачать
1 | 0

28-11-2019 20:33  

Отключить всю рекламу на сайте

    Дорогой пользователь! Огромная просьба, поблагодарите релизера, оцените раздачу и оставьте свои комментарий, если Вы скачали Проект «Синяя книга» через торрент бесплатно! Внесите свою лепту в развитие PiratBit!
    Комментировать посты могут только пользователи прошедшие не сложную регистрацию
    Показать сообщения:    

    Проект «Синяя книга» через торрент
    Скачать бесплатно Проект «Синяя книга»
    Проект «Синяя книга» скачать торрент
    Проект «Синяя книга» смотреть онлайн
    Cкачать фильм Проект «Синяя книга» бесплатно
    Проект «Синяя книга» скачать торрент в хорошем качестве
    Проект «Синяя книга» смотреть онлайн бесплатно в хорошем качестве


    Вы не можете начинать темы
    Вы не можете отвечать на сообщения
    Вы не можете редактировать свои сообщения
    Вы не можете удалять свои сообщения
    Вы не можете голосовать в опросах
    Вы не можете прикреплять файлы к сообщениям
    Вы можете скачивать файлы