новый адрес
Ссылка на приватное зеркало всего за 1$. Внимание количество ограничено!!!

iTunes

1+1

iTunes

мы

WEB-DL

1

iTunes

Чернобыль

iTunes

Ральф против интернета

Лицензия

ПШазам

Лицензия

Оно 2

Лицензия

30
pack

Вам бонус

ВАЖНО

!!Акция!!

Alien_RageХит недели

RePack

Resident Evil 21

ИГРА 18+

pack

RePack

jed

!!Акция!!

Alien_Rage

RePack

fifa19

RePack

Assassins Creed: Odyssey

RePack

NEED FOR SPEED™ PAYBACK

3 сезон

9 сезон

Бесстыжие 9 сезон

Все сериалы

все сериалы на PB.wtf

RePack

FAR CRY 5
Ребята, катастрофически не хватает 1900р. для оплаты серверов за Октябрь (всвязи с блокировками трафик упал в 3 раза), 1-2р., выручайте.
  

Этим летом / Summer '03 (Бекка Глисон) [2018, комедия, WEB-DLRip-AVC] DUB [iTunes] pb.wtf

Этим летом через торрент pb.wtf

Размер: 1.88 GB | Добавлен: 10 мес. назад | Торрент скачан:245 раз
Скачать  

17-01-2019 14:21 Этим летом Скачать торрент  

Этим летом / Summer '03 Год выпуска: 2018
Страна: США
Жанр: комедия
Продолжительность: 01:35:39
Перевод: Дублированный | iTunes
Субтитры: Английские

Режиссер: Бекка Глисон

rating

В ролях:

Андреа Сэвадж, Джои Кинг, Эрин Майя Дарк, Джун Скуиб, Пол Шир, Джек Килмер, Моника Матис, Логан Медина, Келли Ламор Уилсон, Стеффан Аргус

Описание:

Жизнь 16-летней Джейми идёт своим чередом: она гуляет, любит и дружит. Всё резко переворачивается с ног на голову, когда на поверхность выходит ворох семейных секретов.

Качество: WEB-DLRip-AVC
Формат: MKV

Видео: 1024x490 (2.09:1), 24,000 fps, x264 ~2 046 kbps avg, 0.170 bit/pixel
Аудио#1: 48 kHz, AC3 Dolby Digital, 3/2 (L,C,R,l,r) + LFE ch, ~384.00 kbps avg | RUS (iTunes)
Аудио#2: 48 kHz, AC3 Dolby Digital, 3/2 (L,C,R,l,r) + LFE ch, ~384.00 kbps avg | ENG
скриншот  скриншот  скриншот  скриншот  

Общее
Уникальный идентификатор : 230493372031814614748455287986084757908 (0xAD6768A1BC414F631EA43580EB05C194)
Полное имя : F:\OlLanDGroup\Summer.03.2018.WEB-DLRip(AVC).OlLanDGroup.mkv
Формат : Matroska
Версия формата : Version 4 / Version 2
Размер файла : 1,88 Гбайт
Продолжительность : 1 ч. 35 м.
Общий поток : 2813 Кбит/сек
Название фильма : Summer 03 2018 #TorpedoUK#
Дата кодирования : UTC 2019-01-17 13:50:14
Программа кодирования : mkvmerge v29.0.0 ('Like It Or Not') 64-bit
Библиотека кодирования : libebml v1.3.6 + libmatroska v1.4.9

Видео
Идентификатор : 1
Формат : AVC
Формат/Информация : Advanced Video Codec
Профиль формата : High@L4.1
Параметр CABAC формата : Да
Параметр ReFrames формата : 10 кадров
Идентификатор кодека : V_MPEG4/ISO/AVC
Продолжительность : 1 ч. 35 м.
Битрейт : 2046 Кбит/сек
Ширина : 1024 пикселя
Высота : 490 пикселей
Соотношение сторон : 2,090
Режим частоты кадров : Постоянный
Частота кадров : 24,000 кадра/сек
Цветовое пространство : YUV
Субдискретизация насыщенности : 4:2:0
Битовая глубина : 8 бит
Тип развёртки : Прогрессивная
Бит/(Пиксели*Кадры) : 0.170
Размер потока : 1,37 Гбайт (73%)
Библиотека кодирования : x264 core 146 r2538 121396c
Настройки программы : cabac=1 / ref=10 / deblock=1:-3:-2 / analyse=0x3:0x113 / me=umh / subme=11 / psy=1 / psy_rd=0.95:0.07 / mixed_ref=1 / me_range=48 / chroma_me=1 / trellis=2 / 8x8dct=1 / cqm=0 / deadzone=21,11 / fast_pskip=1 / chroma_qp_offset=-3 / threads=6 / lookahead_threads=1 / sliced_threads=0 / nr=0 / decimate=1 / interlaced=0 / bluray_compat=0 / constrained_intra=0 / bframes=11 / b_pyramid=2 / b_adapt=2 / b_bias=0 / direct=3 / weightb=1 / open_gop=0 / weightp=2 / keyint=240 / keyint_min=24 / scenecut=40 / intra_refresh=0 / rc_lookahead=40 / rc=2pass / mbtree=0 / bitrate=2046 / ratetol=1.0 / qcomp=0.60 / qpmin=0 / qpmax=69 / qpstep=4 / cplxblur=20.0 / qblur=0.5 / vbv_maxrate=50000 / vbv_bufsize=62500 / nal_hrd=none / filler=0 / ip_ratio=1.40 / pb_ratio=1.30 / aq=1:1.00
Язык : English
Default : Да
Forced : Нет

Аудио #1
Идентификатор : 2
Формат : AC-3
Формат/Информация : Audio Coding 3
Расширение режима : CM (complete main)
Параметр Endianness формата : Big
Идентификатор кодека : A_AC3
Продолжительность : 1 ч. 35 м.
Вид битрейта : Постоянный
Битрейт : 384 Кбит/сек
Каналы : 6 каналов
Расположение каналов : Front: L C R, Side: L R, LFE
Частота : 48,0 КГц
Частота кадров : 31,250 кадров/сек (1536 spf)
Битовая глубина : 16 бит
Метод сжатия : С потерями
Размер потока : 263 Мбайт (14%)
Заголовок : DUB [iTunes]
Язык : Russian
Default : Да
Forced : Нет

Аудио #2
Идентификатор : 3
Формат : AC-3
Формат/Информация : Audio Coding 3
Расширение режима : CM (complete main)
Параметр Endianness формата : Big
Идентификатор кодека : A_AC3
Продолжительность : 1 ч. 35 м.
Вид битрейта : Постоянный
Битрейт : 384 Кбит/сек
Каналы : 6 каналов
Расположение каналов : Front: L C R, Side: L R, LFE
Частота : 48,0 КГц
Частота кадров : 31,250 кадров/сек (1536 spf)
Битовая глубина : 16 бит
Метод сжатия : С потерями
Размер потока : 263 Мбайт (14%)
Заголовок : [Original]
Язык : English
Default : Нет
Forced : Нет

Текст
Идентификатор : 4
Формат : UTF-8
Идентификатор кодека : S_TEXT/UTF8
Идентификатор кодека/Информация : UTF-8 Plain Text
Продолжительность : 1 ч. 33 м.
Битрейт : 67 бит/сек
Count of elements : 1497
Размер потока : 46,1 Кбайт (0%)
Заголовок : Full
Язык : English
Default : Нет
Forced : Нет

Меню
00:00:00.000 : en:Глава 1
00:03:13.291 : en:Глава 2
00:11:55.457 : en:Глава 3
00:18:02.498 : en:Глава 4
00:22:45.164 : en:Глава 5
00:28:18.122 : en:Глава 6
00:35:34.330 : en:Глава 7
00:43:51.080 : en:Глава 8
00:49:38.038 : en:Глава 9
00:55:52.871 : en:Глава 10
01:04:41.579 : en:Глава 11
01:12:54.329 : en:Глава 12
01:22:00.620 : en:Глава 13
01:27:32.370 : en:Глава 14

pb.wtf



Скачать Этим летом через торрент http://img10.lostpic.net/2019/01/17/5ce6ce0cfd56652a51ddac2d4f87a855.jpg Скачать фильм Этим летом через торрент бесплантно в хорошем качестве Описание: Жизнь 16-летней Джейми идёт своим чередом: она гуляет, любит и дружит. Всё резко переворачивается с ног на голову, когда на ... 10 10 7
Торрент: Зарегистрирован [2019-01-17 14:21] · скачан: 245 раз
Статус: √ проверено
Размер: 1.88 GB
Как cкачать? Как скачать Этим летом через торрент | qTorrent

28-11-2019 20:33  

Отключить всю рекламу на сайте

    Дорогой пользователь! Огромная просьба, поблагодарите релизера, оцените раздачу и оставьте свои комментарий, если Вы скачали Этим летом через торрент бесплатно! Внесите свою лепту в развитие PiratBit!
    Комментировать посты могут только пользователи прошедшие не сложную регистрацию
    Показать сообщения:    

    Этим летом через торрент
    Скачать бесплатно Этим летом
    Этим летом скачать торрент
    Этим летом смотреть онлайн
    Cкачать фильм Этим летом бесплатно
    Этим летом скачать торрент в хорошем качестве
    Этим летом смотреть онлайн бесплатно в хорошем качестве


    Вы не можете начинать темы
    Вы не можете отвечать на сообщения
    Вы не можете редактировать свои сообщения
    Вы не можете удалять свои сообщения
    Вы не можете голосовать в опросах
    Вы не можете прикреплять файлы к сообщениям
    Вы можете скачивать файлы