Ссылка на приватное зеркало нашего сайта всего за 1$. Внимание количество ограничено!!!

2 сезон

iTunes

1 сезон

1

2 сезон

2 сезон

iTunes

1 сезон

RePack

30

Новинка

ВАЖНО

ИГРА 18+

pack

RePack

MK11
pack

Забери бонус

RePack

jed

!!Акция!!

Alien_Rage

RePack

fifa19

RePack

Assassins Creed: Odyssey

RePack

NEED FOR SPEED™ PAYBACK

4 сезон

9 сезон

Бесстыжие 9 сезон

Все сериалы

все сериалы на PB.wtf

RePack

FAR CRY 5
  

Юхан Фальк / Бандитский Гётеборг / Johan Falk / Сезон: 1-3 / Серии: 1-34 из 34 (Андерс Нильссон, Ричард Холм, Шарлотта Брандстром, Петер Линдмарк, Даниель Линд Лагерлёф) [2009-2015, Экшн, триллер, криминал, детектив, WEB-DL 720p] [MVO] (Showjet) pb.wtf

Юхан Фальк через торрент pb.wtf

Размер: 27.85 GB | Добавлен: 1 год 10 мес. назад | Торрент скачан:11 раз
Скачать  

17-01-2019 17:52 Юхан Фальк Скачать торрент  

Юхан Фальк / Бандитский Гётеборг / Johan Falk Год выпуска: 2009-2015
Страна: Швеция
Жанр: Экшн, триллер, криминал, детектив
Продолжительность: 34 x ~ 00:50:00
Перевод: Профессиональный (многоголосый закадровый) Showjet

Режиссёр: Андерс Нильссон , Ричард Холм, Шарлотта Брандстром, Петер Линдмарк, Даниель Линд Лагерлёф

В ролях: Якоб Эклунд, Мелиз Карлге, Юэль Киннаман, Микаэл Торнвинг, Йенс Хультен, Хенрик Норлен, Рут Вега Фернандез, Мария Рихардсон, Саймон Дж. Бергер

Описание: Коллекция захватывающих криминальных историй в самом сердце Скандинавии — шведском городе Гётеборге. Сюжет каждого эпизода основан на реальных случаях из практики европейской полиции.
О чем вы думаете, когда слышите слово «преступление»? Скорее всего, об убийствах, похищениях, торговле наркотиками и т.д. Но полицейские относят к «настоящим» преступлениям совсем другие дела, куда более опасные: заговоры бывших агентов спецслужб, террористические атаки, разборки мафии, торговлю оружием и кражи редких драгоценностей. Для таких расследований в Гётеборге, с виду тихом и спокойном городе, действует специальный отряд под руководством детектива Юхана Фалька, опытного и бескомпромиссного лидера. Чтобы поймать злодеев, Фальк и его команда используют самые необычные методы на грани закона. В такой работе невероятно сложно определить, где заканчивается правосудие и начинается беспредел...

rating

скриншот  

Качество: WEB-DL 720p
Контейнер: MKV
Видео: MPEG-4 AVC, ~ 2250 Кбит/с, 1280x694, 25 кадр/с
Аудио: AC3, 48 Hz, 2 ch, 192 Кбит/с
Субтитры: Отсутствуют
Реклама: Отсутствует

Цитата:

Раздача создана при поддержке сайта EniaHD
Работа со звуком Zgurvas, за что ему Большое Спасибо!
Запись видеопотока и оформление раздачи: Atla22

General
Unique ID : 106173213688711403592543321382661159089 (0x4FE037975F07CD43BEA573CEB08478B1)
Complete name : F:\Бандитский Гётеборг. Сериал. 2009-2015. Showjet (WEB-DL 720р)\1 Сезон (2009)\Johan.Falk.s01e01. Отдел специального назначения. Часть 1.mkv
Format : Matroska
Format version : Version 4 / Version 2
File size : 841 MiB
Duration : 48 min 10 s
Overall bit rate : 2 441 kb/s
Movie name : Special Operations Group. Part 1
Encoded date : UTC 2019-01-17 08:25:54
Writing application : mkvmerge v25.0.0 ('Prog Noir') 64-bit
Writing library : libebml v1.3.6 + libmatroska v1.4.9
Attachments : Poster.jpg

Video
ID : 1
Format : AVC
Format/Info : Advanced Video Codec
Format profile : High@L4
Format settings : CABAC / 9 Ref Frames
Format settings, CABAC : Yes
Format settings, RefFrames : 9 frames
Codec ID : V_MPEG4/ISO/AVC
Duration : 48 min 10 s
Bit rate : 2 246 kb/s
Width : 1 280 pixels
Height : 694 pixels
Display aspect ratio : 1.85:1
Frame rate mode : Variable
Frame rate : 25.000 FPS
Standard : PAL
Color space : YUV
Chroma subsampling : 4:2:0
Bit depth : 8 bits
Scan type : Progressive
Bits/(Pixel*Frame) : 0.101
Stream size : 774 MiB (92%)
Language : Swedish
Default : Yes
Forced : No
Color range : Limited
Color primaries : BT.709
Transfer characteristics : BT.709
Matrix coefficients : BT.709

Audio
ID : 2
Format : AC-3
Format/Info : Audio Coding 3
Format settings, Endianness : Big
Codec ID : A_AC3
Duration : 48 min 10 s
Bit rate mode : Constant
Bit rate : 192 kb/s
Channel(s) : 2 channels
Channel positions : Front: L R
Sampling rate : 48.0 kHz
Frame rate : 31.250 FPS (1536 SPF)
Bit depth : 16 bits
Compression mode : Lossy
Stream size : 66.2 MiB (8%)
Language : Russian
Service kind : Complete Main
Default : Yes
Forced : No
скриншот  скриншот  скриншот  
pb.wtf



Скачать Юхан Фальк через торрент http://funkyimg.com/i/2Qgqs.jpg Скачать фильм Юхан Фальк через торрент бесплантно в хорошем качестве Описание: Коллекция захватывающих криминальных историй в самом сердце Скандинавии — шведском городе Гётеборге. Сюжет каждого эпизода ... 5.5 10 2
Торрент: Зарегистрирован [2019-01-18 17:02] · скачан: 11 раз
Статус: √ проверено
Размер: 27.85 GB
Как cкачать? Как скачать Юхан Фальк через торрент | qTorrent

28-11-2019 20:33  

Отключить всю рекламу на сайте

    Дорогой пользователь! Огромная просьба, поблагодарите релизера, оцените раздачу и оставьте свои комментарий, если Вы скачали Юхан Фальк через торрент бесплатно! Внесите свою лепту в развитие PiratBit!
    Комментировать посты могут только пользователи прошедшие не сложную регистрацию
    Показать сообщения:    

    Юхан Фальк через торрент
    Скачать бесплатно Юхан Фальк
    Юхан Фальк скачать торрент
    Юхан Фальк смотреть онлайн
    Cкачать фильм Юхан Фальк бесплатно
    Юхан Фальк скачать торрент в хорошем качестве
    Юхан Фальк смотреть онлайн бесплатно в хорошем качестве


    Вы не можете начинать темы
    Вы не можете отвечать на сообщения
    Вы не можете редактировать свои сообщения
    Вы не можете удалять свои сообщения
    Вы не можете голосовать в опросах
    Вы не можете прикреплять файлы к сообщениям
    Вы можете скачивать файлы