Ссылка на приватное зеркало нашего сайта всего за 1$. Внимание количество ограничено!!!

2 сезон

iTunes

1 сезон

1

2 сезон

2 сезон

iTunes

1 сезон

RePack

30

Ultimate

ВАЖНО

ИГРА 18+

pack

RePack

MK11
pack

Забери бонус

RePack

jed

!!Акция!!

Alien_Rage

RePack

fifa19

RePack

Assassins Creed: Odyssey

RePack

NEED FOR SPEED™ PAYBACK

4 сезон

9 сезон

Бесстыжие 9 сезон

Все сериалы

все сериалы на PB.wtf

RePack

FAR CRY 5
  

Отверженные / Les Misérables / Сезон: 1 / Серии: 1-6 из 6 (Том Шенклэнд) [2019, Драма, мелодрама, исторический, WEBRip 720p] [MVO] (LostFilm) pb.wtf

Отверженные через торрент pb.wtf

Размер: 10.99 GB | Добавлен: 1 год 9 мес. назад | Торрент скачан:38 раз
Скачать  

17-01-2019 18:24 Отверженные Скачать торрент  

Отверженные / Les Misérables◈ ✦ Год выхода: 2019
✦ Жанр: Драма, мелодрама, исторический
✦ Страна: США, Великобритания
✦ Продолжительность: ~ 01:00:00
✦ Перевод: Профессиональный (многоголосый закадровый) LostFilm


✦ Режиссер: Том Шенклэнд

✦ В ролях: Доминик Уэст, Лили Коллинз, Элли Бамбер, Дэвид Ойелоуо, Адиль Ахтар, Оливия Колман, Алекс Джарретт, Эрин Келлиман, Джош О’Коннор, Джозеф Куинн, Рис Йейтс

Описание: Картина, состоящая из шести серий, является британской адаптацией знаменитого романа Виктора Гюго. Ключевое событие в повествовании -Июньское восстание, произошедшее в Париже в 1832 году. Жан Вальжан – осужденный за кражу хлеба беглый каторжник, на протяжении долгих лет скрывается от инспектора Жавера. Жавер, в свою очередь, свято верит в справедливость закона и считает делом чести поимку беглого вора. Параллельно с их противостоянием развивается трагичная история Фантины и ее незаконнорожденной дочери Козетты. После смерти Фантины Жан Вальжан, считающий себя в ответе за ее судьбу, забирает Козетту и заботится о ней как о родной дочери.

rating

Информация о файле:
✦ Качество: WEBRip 720p
✦ Формат: MPEG-4
✦ Видео: MPEG-4 AVC, ~ 4000 Кбит/с, 1280x720
✦ Аудио: 48 kHz, AAC, 2 ch, 254 kbps - MVO
Внимание! Раздача ведётся путём добавления новых серий; при каждом добавлении создётся новый торрент. Чтобы начать докачку новой серии, пользователям необходимо сделать следующее: (1) остановить скачивание, (2) удалить старый торрент у себя из клиента (старые серии удалять не надо), (3) скачать новый торрент и запустить его у себя в клиенте вместо старого, при этом указать клиенту путь в старую папку куда и должно происходить скачивание новых серий.
Ваш клиент при этом должен произвести хеширование (проверку) старой папки (если не производит сам - помогите ему сделать это), и будет докачивать только те серии которых у вас ещё нет. Старые серии при этом не удаляются, а продолжают раздаваться!
Eсли вы уже удалили старые серии, то предотвратить повторную закачку старых серий можно, отжав галочку в соответсвующих местах при запуске нового торрента.
General
Complete name : F:\Les.Miserables.S01.720p.WEB.LostFilm.TV\Les.Miserables.S01E01.720p.WEB.rus.LostFilm.TV.mp4
Format : MPEG-4
Format profile : Base Media
Codec ID : isom (isom)
File size : 1.77 GiB
Duration : 59 min 39 s
Overall bit rate mode : Variable
Overall bit rate : 4 259 kb/s
Collection : Отверженные
Season : 1
Album : Отверженные, Сезон 1
Album/Performer : Отверженные
Part : 1
Part/Position : 1
Track name : Эпизод 1
Track name/Position : 1
Performer : Отверженные
Genre : drama
ContentType : TV Show
Recorded date : 2018
Encoded date : UTC 2019-01-05 20:11:32
Tagged date : UTC 2019-01-05 20:11:32
Writing application : Yamb 2.1.0.0 [http://yamb.unite-video.com] / LostCoder
Copyright : LostFilm.TV (c)
Cover : Yes
Part_ID : 101
rati : (Binary)

Video
ID : 1
Format : AVC
Format/Info : Advanced Video Codec
Format profile : High@L4.1
Format settings : CABAC / 4 Ref Frames
Format settings, CABAC : Yes
Format settings, RefFrames : 4 frames
Codec ID : avc1
Codec ID/Info : Advanced Video Coding
Duration : 59 min 39 s
Bit rate : 4 000 kb/s
Maximum bit rate : 17.2 Mb/s
Width : 1 280 pixels
Height : 720 pixels
Display aspect ratio : 16:9
Frame rate mode : Constant
Frame rate : 25.000 FPS
Color space : YUV
Chroma subsampling : 4:2:0
Bit depth : 8 bits
Scan type : Progressive
Bits/(Pixel*Frame) : 0.174
Stream size : 1.67 GiB (94%)
Title : Imported with GPAC 0.4.6-DEV (internal rev. 5)
Writing library : x264 core 112 r1834 a51816a
Encoding settings : cabac=1 / ref=4 / deblock=1:-3:-2 / analyse=0x3:0x113 / me=hex / subme=7 / psy=1 / psy_rd=1.00:0.00 / mixed_ref=1 / me_range=16 / chroma_me=1 / trellis=1 / 8x8dct=1 / cqm=0 / deadzone=21,11 / fast_pskip=1 / chroma_qp_offset=-2 / threads=12 / sliced_threads=0 / nr=0 / decimate=1 / interlaced=0 / constrained_intra=0 / bframes=5 / b_pyramid=2 / b_adapt=1 / b_bias=0 / direct=1 / weightb=1 / open_gop=0 / weightp=2 / keyint=250 / keyint_min=25 / scenecut=40 / intra_refresh=0 / rc_lookahead=40 / rc=2pass / mbtree=1 / bitrate=4000 / ratetol=1.0 / qcomp=0.60 / qpmin=0 / qpmax=51 / qpstep=4 / cplxblur=20.0 / qblur=0.5 / vbv_maxrate=10000 / vbv_bufsize=256000 / ip_ratio=1.40 / aq=1:1.00 / nal_hrd=none
Encoded date : UTC 2019-01-01 13:38:01
Tagged date : UTC 2019-01-05 20:14:00

Audio
ID : 2
Format : AAC
Format/Info : Advanced Audio Codec
Format profile : LC
Codec ID : mp4a-40-2
Duration : 59 min 39 s
Bit rate mode : Variable
Bit rate : 254 kb/s
Maximum bit rate : 342 kb/s
Channel(s) : 2 channels
Channel positions : Front: L R
Sampling rate : 48.0 kHz
Frame rate : 46.875 FPS (1024 SPF)
Compression mode : Lossy
Stream size : 108 MiB (6%)
Encoded date : UTC 2019-01-05 20:13:12
Tagged date : UTC 2019-01-05 20:14:00

скриншот  скриншот  скриншот  
pb.wtf



Скачать Отверженные через торрент https://i106.fastpic.ru/big/2019/0106/39/26206848d713c926a7a54fc7910ea939.jpg Скачать фильм Отверженные через торрент бесплантно в хорошем качестве Описание: Картина, состоящая из шести серий, является британской адаптацией знаменитого романа Виктора Гюго. Ключевое событие в ... 10 10 2
Торрент: Зарегистрирован [2019-02-08 12:54] · скачан: 38 раз
Статус: √ проверено
Размер: 10.99 GB
Как cкачать? Как скачать Отверженные через торрент | qTorrent

% Раздел Тема Автор DL S | L
Зарубежные сериалы [ 5.17 GB ] Отверженные / Les Misérables / Сезон: 1 / Серии: 1-6 из 6 [2019 исторический BDRip] [MVO] killermax2013 Скачать
2 | 0
Зарубежные сериалы [ 13.98 GB ] Отверженные / Les Miserables / Сезон: 1 / Серии: 1-6 из 6 [2019 история HDTVRip 1080p] MVO [TVShows] bober100 Скачать
1 | 0
Зарубежные сериалы [ 24.35 GB ] Отверженные / Les Misérables / Les Miserables / Сезон: 1 / Серии: 1-6 из 6 [2018-2019 история WEB-DL 1080p] MVO [LostFilm] bober100 Скачать
1 | 0
Зарубежные сериалы [ 4.29 GB ] Отверженные / Les Misérables / Сезон: 1 / Серии: 1-6 из 6 [2019 исторический HDTVRip] [MVO] killermax2013 Скачать
1 | 0
Зарубежные сериалы [ 5.54 GB ] Отверженные / Les Misérables / Сезон: 1 / Серии: 1-6 из 6 [2019 исторический HDTV 720p] [MVO] killermax2013 Скачать
1 | 0
Зарубежные сериалы [ 9.37 GB ] Отверженные / Les Misérables / Сезон: 1 / Серии: 1-6 из 6 [2019 исторический HDTV 720p] [MVO] killermax2013 Скачать
1 | 0
Зарубежные сериалы [ 5.07 GB ] Отверженные / Les Misérables / Сезон: 1 / Серии: 1-6 из 6 [2019 исторический HDTVRip] [MVO] killermax2013 Скачать
1 | 0

28-11-2019 20:33  

Отключить всю рекламу на сайте

    Дорогой пользователь! Огромная просьба, поблагодарите релизера, оцените раздачу и оставьте свои комментарий, если Вы скачали Отверженные через торрент бесплатно! Внесите свою лепту в развитие PiratBit!
    Комментировать посты могут только пользователи прошедшие не сложную регистрацию
    Показать сообщения:    

    Отверженные через торрент
    Скачать бесплатно Отверженные
    Отверженные скачать торрент
    Отверженные смотреть онлайн
    Cкачать фильм Отверженные бесплатно
    Отверженные скачать торрент в хорошем качестве
    Отверженные смотреть онлайн бесплатно в хорошем качестве


    Вы не можете начинать темы
    Вы не можете отвечать на сообщения
    Вы не можете редактировать свои сообщения
    Вы не можете удалять свои сообщения
    Вы не можете голосовать в опросах
    Вы не можете прикреплять файлы к сообщениям
    Вы можете скачивать файлы