Ссылка на приватное зеркало нашего сайта всего за 1$. Внимание количество ограничено!!!

2 сезон

iTunes

1 сезон

1

2 сезон

2 сезон

iTunes

1 сезон

RePack

30

Ultimate

ВАЖНО

ИГРА 18+

pack

RePack

MK11
pack

Забери бонус

RePack

jed

!!Акция!!

Alien_Rage

RePack

fifa19

RePack

Assassins Creed: Odyssey

RePack

NEED FOR SPEED™ PAYBACK

4 сезон

9 сезон

Бесстыжие 9 сезон

Все сериалы

все сериалы на PB.wtf

RePack

FAR CRY 5
  

Смолфут / Smallfoot (Кэри Киркпатрик , Джейсон Рейсиг) [2018, мультфильм, мюзикл, фэнтези, UHD WEBRip 2160p] DUB [Лицензия] pb.wtf

Смолфут через торрент pb.wtf

Размер: 15.54 GB | Добавлен: 1 год 10 мес. назад | Торрент скачан:46 раз
Скачать  

18-01-2019 04:38 Смолфут Скачать торрент  

Смолфут / Smallfoot««Not every legend is a tall tale»»

Год выпуска: 2018
Страна: США
Жанр: мультфильм, мюзикл, фэнтези, комедия, приключения, семейный
Продолжительность: 01:36:09
Перевод: Дублированный [Лицензия]
Субтитры: Русские, английские
Режиссер: Кэри Киркпатрик , Джейсон Рейсиг
В ролях:

Ченнинг Татум (Migo, озвучка), Джеймс Корден (Percy, озвучка), Зендея (Meechee, озвучка), Коммон (Stonekeeper, озвучка), Леброн Джеймс (Gwangi, озвучка), Дэнни ДеВито (Dorgle, озвучка), Джина Родригез (Kolka, озвучка), Яра Шахиди (Brenda, озвучка), Эли Генри (Fleem, озвучка), Джимми Татро (Thorp, озвучка), Патриша Хитон (Mama Bear, озвучка), Джастин Ройланд (Garry, озвучка)
Описание:
Молодой находчивый йети сталкивается с тем, кого, по его глубокому убеждению, не существует - человеком. Новости о «смолфуте» приносят ему славу и шанс завоевать девушку его мечты. А ещё - вызывают переполох среди простых йети, которые теперь гадают, кто же ещё обитает в большом мире за пределами их маленькой заснеженной деревушки.
Рейтинг:

MPAA: PG - Рекомендуется присутствие родителей
Качество: UHD WEBRip 2160p
Формат: MKV
Видео: HEVC HDR, 20.1 Мбит/с, 3840x1600, 23.976 Кадр/с, 10 бит
Аудио №1: Russian / Dolby Digital Audio / 5.1 / 48 kHz / 640 kbps Полное дублирование
Аудио №2: English / DTS-HD Master Audio / 5.1 / 48 kHz / 2431 kbps Оригинал
Навигация по главам: есть
General
Unique ID : 336508237592004134632749186933337133251 (0xFD29210EBD0DC12DA34F15E7F28C90C3)
Complete name : X:\Releases\Smallfoot.2018.WEBRip.HEVC.HDR.2160p.mkv
Format : Matroska
Format version : Version 4
File size : 15.5 GiB
Duration : 1 h 36 min
Overall bit rate mode : Variable
Overall bit rate : 23.1 Mb/s
Encoded date : UTC 2019-01-17 17:11:03
Writing application : mkvmerge v30.1.0 ('Forever And More') 64-bit
Writing library : libebml v1.3.6 + libmatroska v1.4.9
Attachments : poster.jpg

Video
ID : 1
Format : HEVC
Format/Info : High Efficiency Video Coding
Commercial name : HDR10
Format profile : Main 10@L5@Main
Codec ID : V_MPEGH/ISO/HEVC
Duration : 1 h 36 min
Bit rate : 20.1 Mb/s
Width : 3 840 pixels
Height : 1 608 pixels
Display aspect ratio : 2.40:1
Frame rate mode : Constant
Frame rate : 23.976 (24000/1001) FPS
Color space : YUV
Chroma subsampling : 4:2:0
Bit depth : 10 bits
Bits/(Pixel*Frame) : 0.135
Stream size : 13.5 GiB (87%)
Default : Yes
Forced : No
Color range : Limited
Color primaries : BT.2020
Transfer characteristics : PQ
Matrix coefficients : BT.2020 non-constant
Mastering display color pri : BT.2020
Mastering display luminance : min: 4.1250 cd/m2, max: 4000 cd/m2
Maximum Content Light Level : 1689 cd/m2
Maximum Frame-Average Light : 342 cd/m2

Audio #1
ID : 2
Format : AC-3
Format/Info : Audio Coding 3
Commercial name : Dolby Digital
Codec ID : A_AC3
Duration : 1 h 36 min
Bit rate mode : Constant
Bit rate : 640 kb/s
Channel(s) : 6 channels
Channel layout : L R C LFE Ls Rs
Sampling rate : 48.0 kHz
Frame rate : 31.250 FPS (1536 SPF)
Bit depth : 16 bits
Compression mode : Lossy
Stream size : 440 MiB (3%)
Title : Дубляж
Language : Russian
Service kind : Complete Main
Default : Yes
Forced : No

Audio #2
ID : 3
Format : DTS XLL
Format/Info : Digital Theater Systems
Commercial name : DTS-HD Master Audio
Codec ID : A_DTS
Duration : 1 h 36 min
Bit rate mode : Variable
Bit rate : 2 431 kb/s
Channel(s) : 6 channels
Channel layout : C L R Ls Rs LFE
Sampling rate : 48.0 kHz
Frame rate : 93.750 FPS (512 SPF)
Bit depth : 16 bits
Compression mode : Lossless
Delay relative to video : 9 ms
Stream size : 1.63 GiB (11%)
Title : Оригинал
Language : English
Default : No
Forced : No

Text #1
ID : 4
Format : UTF-8
Codec ID : S_TEXT/UTF8
Codec ID/Info : UTF-8 Plain Text
Duration : 55 min 58 s
Bit rate : 1 b/s
Count of elements : 19
Stream size : 729 Bytes (0%)
Title : Форсированные
Language : Russian
Default : Yes
Forced : No

Text #2
ID : 5
Format : UTF-8
Codec ID : S_TEXT/UTF8
Codec ID/Info : UTF-8 Plain Text
Duration : 1 h 35 min
Bit rate : 108 b/s
Count of elements : 1500
Stream size : 76.0 KiB (0%)
Title : Полные
Language : Russian
Default : No
Forced : No

Text #3
ID : 6
Format : UTF-8
Codec ID : S_TEXT/UTF8
Codec ID/Info : UTF-8 Plain Text
Duration : 1 h 30 min
Bit rate : 75 b/s
Count of elements : 1774
Stream size : 50.2 KiB (0%)
Title : Полные
Language : English
Default : No
Forced : No

Menu
00:00:00.000 : :Chapter 01
00:09:56.262 : :Chapter 02
00:21:36.295 : :Chapter 03
00:32:10.637 : :Chapter 04
00:38:33.602 : :Chapter 05
00:49:59.705 : :Chapter 06
00:55:37.167 : :Chapter 07
01:01:53.209 : :Chapter 08
01:12:04.278 : :Chapter 09
01:18:26.076 : :Chapter 10
01:26:16.796 : :Chapter 11
01:31:12.300 : :Chapter 12
pb.wtf



Скачать Смолфут через торрент https://d.radikal.ru/d05/1901/c0/8b5276935d14.png Скачать фильм Смолфут через торрент бесплантно в хорошем качестве Описание: Молодой находчивый йети сталкивается с тем, кого, по его глубокому убеждению, не существует - человеком. Новости о «смолфуте» ... 8.7 10 3
Торрент: Зарегистрирован [2019-01-18 04:38] · скачан: 46 раз
Статус: √ проверено
Размер: 15.54 GB
Как cкачать? Как скачать Смолфут через торрент | qTorrent

% Раздел Тема Автор DL S | L
Мультфильмы (48-60 fps) [ 19.97 GB ] Смолфут / Smallfoot [2018 мультфильм мюзикл BDRip 1080p 60 fps] DUB [] sheker187 Скачать
1 | 0
Зарубежные Мультфильмы (BDRip 1080p, 720p, Blu-ray, BD-Remux) [ 6.28 GB ] Смолфут / Smallfoot [2018 мультфильм мюзикл BDRip-HEVC 1080p ] DUB [] bober100 Скачать
1 | 0
Зарубежные Мультфильмы (BDRip 1080p, 720p, Blu-ray, BD-Remux) [ 43.76 GB ] Смолфут / Smallfoot [2018 мультфильм мюзикл Blu-ray 1080p] DUB [] bober100 Скачать
1 | 0
Иностранные мультфильмы [ 746 MB ] Смолфут / Smallfoot [2018 мультфильм мюзикл BDRip] DUB [ BD EUR] bober100 Скачать
2 | 0
3D Мультфильмы [ 9.02 GB ] Смолфут 3Д / Smallfoot 3D [2018 мультфильм мюзикл BDRip 1080p] [Anamorph SideBySide / Горизонтальная анаморфная стереопара] DUB [] bober100 Скачать
1 | 0
3D Мультфильмы [ 9.07 GB ] Смолфут 3Д / Smallfoot 3D [2018 мультфильм мюзикл BDRip 1080p] [Half OverUnder / Вертикальная анаморфная стереопара] DUB [] bober100 Скачать
1 | 0
Зарубежные Мультфильмы (BDRip 1080p, 720p, Blu-ray, BD-Remux) [ 4.56 GB ] Смолфут / Smallfoot [2018 мультфильм мюзикл BDRip 720p] DUB [] bober100 Скачать
2 | 0

28-11-2019 20:33  

Отключить всю рекламу на сайте

    Дорогой пользователь! Огромная просьба, поблагодарите релизера, оцените раздачу и оставьте свои комментарий, если Вы скачали Смолфут через торрент бесплатно! Внесите свою лепту в развитие PiratBit!
    Комментировать посты могут только пользователи прошедшие не сложную регистрацию
    Показать сообщения:    

    Смолфут через торрент
    Скачать бесплатно Смолфут
    Смолфут скачать торрент
    Смолфут смотреть онлайн
    Cкачать фильм Смолфут бесплатно
    Смолфут скачать торрент в хорошем качестве
    Смолфут смотреть онлайн бесплатно в хорошем качестве


    Вы не можете начинать темы
    Вы не можете отвечать на сообщения
    Вы не можете редактировать свои сообщения
    Вы не можете удалять свои сообщения
    Вы не можете голосовать в опросах
    Вы не можете прикреплять файлы к сообщениям
    Вы можете скачивать файлы