новый адрес
Ссылка на приватное зеркало всего за 1$. Внимание количество ограничено!!!

iTunes

1+1

iTunes

мы

WEB-DL

1

iTunes

Чернобыль

iTunes

Ральф против интернета

Лицензия

ПШазам

Лицензия

Оно 2

Лицензия

30
pack

Вам бонус

ВАЖНО

!!Акция!!

Alien_RageХит недели

RePack

Resident Evil 21

ИГРА 18+

pack

RePack

jed

!!Акция!!

Alien_Rage

RePack

fifa19

RePack

Assassins Creed: Odyssey

RePack

NEED FOR SPEED™ PAYBACK

3 сезон

9 сезон

Бесстыжие 9 сезон

Все сериалы

все сериалы на PB.wtf

RePack

FAR CRY 5
Ребята, катастрофически не хватает 1900р. для оплаты серверов за Октябрь (всвязи с блокировками трафик упал в 3 раза), 1-2р., выручайте.
  

Вечерняя школа / Night School (Малкольм Д. Ли) [2018, Комедия, BDRip-AVC] DUB [iTunes] pb.wtf

Вечерняя школа через торрент pb.wtf

Раздают: 5 [ 0 KB/s ]
Размер: 2.06 GB | Добавлен: 10 мес. назад | Торрент скачан:1543 раза
Скачать  

18-01-2019 05:09 Вечерняя школа Скачать торрент  

Вечерняя школа / Night School Год выпуска: 2018
Страна: США
Жанр: Комедия
Продолжительность: 01:51:16
Перевод: Дублированный | iTunes
Субтитры: Английские (полные, SDH)

Режиссер: Малкольм Д. Ли

rating

В ролях:

Кевин Харт, Тиффани Хэддиш, Кит Дэвид, Таран Киллэм, Мэри Линн Райскаб, Энн Уинтерс, Мэгалин Эчиканвоке, Бен Шварц, Роб Риггл, Романи Малко

Описание:

Тедди добился успеха в жизни: нет образования, девушка ушла, и он работает в костюме курицы возле стрип-клуба. У него есть последний шанс начать все заново - вернуться за школьную парту и получить аттестат. Кто сказал, что учиться никогда не поздно?

Качество: BDRip-AVC
Формат: MKV

Видео: 1024x428 (2.40:1), 23,976 fps, x264 ~1 821 kbps avg, 0.173 bit/pixel
Аудио#1: 48 kHz, AC3 Dolby Digital Plus, 3/2 (L,C,R,l,r) + LFE ch, ~384.00 kbps avg | RUS (iTunes)
Аудио#2: 48 kHz, AC3 Dolby Digital Plus, 3/2 (L,C,R,l,r) + LFE ch, ~448.00 kbps avg | ENG
скриншот  скриншот  скриншот  скриншот  скриншот  

Общее
Уникальный идентификатор : 285335999802391316839816922926878476836 (0xD6A9B6F18A44A20FE24EF3E0BEB2CA24)
Полное имя : F:\OlLanDGroup\Night.School.2018.BDRip(AVC).OlLanDGroup.mkv
Формат : Matroska
Версия формата : Version 4 / Version 2
Размер файла : 2,06 Гбайт
Продолжительность : 1 ч. 51 м.
Общий поток : 2655 Кбит/сек
Название фильма : Night.School.2018 #TorpedoUK#
Дата кодирования : UTC 2019-01-18 03:46:13
Программа кодирования : mkvmerge v29.0.0 ('Like It Or Not') 64-bit
Библиотека кодирования : libebml v1.3.6 + libmatroska v1.4.9

Видео
Идентификатор : 1
Формат : AVC
Формат/Информация : Advanced Video Codec
Профиль формата : High@L4.1
Параметр CABAC формата : Да
Параметр ReFrames формата : 10 кадров
Идентификатор кодека : V_MPEG4/ISO/AVC
Продолжительность : 1 ч. 51 м.
Битрейт : 1821 Кбит/сек
Ширина : 1024 пикселя
Высота : 428 пикселей
Соотношение сторон : 2,40:1
Режим частоты кадров : Постоянный
Частота кадров : 23,976 (24000/1001) кадра/сек
Цветовое пространство : YUV
Субдискретизация насыщенности : 4:2:0
Битовая глубина : 8 бит
Тип развёртки : Прогрессивная
Бит/(Пиксели*Кадры) : 0.173
Размер потока : 1,42 Гбайт (69%)
Библиотека кодирования : x264 core 146 r2538 121396c
Настройки программы : cabac=1 / ref=10 / deblock=1:-3:-3 / analyse=0x3:0x113 / me=umh / subme=11 / psy=1 / psy_rd=0.99:0.04 / mixed_ref=1 / me_range=48 / chroma_me=1 / trellis=2 / 8x8dct=1 / cqm=0 / deadzone=21,11 / fast_pskip=1 / chroma_qp_offset=-3 / threads=6 / lookahead_threads=1 / sliced_threads=0 / nr=0 / decimate=1 / interlaced=0 / bluray_compat=0 / constrained_intra=0 / bframes=11 / b_pyramid=2 / b_adapt=2 / b_bias=0 / direct=3 / weightb=1 / open_gop=0 / weightp=2 / keyint=240 / keyint_min=23 / scenecut=40 / intra_refresh=0 / rc_lookahead=40 / rc=2pass / mbtree=0 / bitrate=1821 / ratetol=1.0 / qcomp=0.60 / qpmin=0 / qpmax=69 / qpstep=4 / cplxblur=20.0 / qblur=0.5 / vbv_maxrate=50000 / vbv_bufsize=62500 / nal_hrd=none / filler=0 / ip_ratio=1.40 / pb_ratio=1.30 / aq=1:1.00
Язык : English
Default : Да
Forced : Нет

Аудио #1
Идентификатор : 2
Формат : AC-3
Формат/Информация : Audio Coding 3
Расширение режима : CM (complete main)
Параметр Endianness формата : Big
Идентификатор кодека : A_AC3
Продолжительность : 1 ч. 51 м.
Вид битрейта : Постоянный
Битрейт : 384 Кбит/сек
Каналы : 6 каналов
Расположение каналов : Front: L C R, Side: L R, LFE
Частота : 48,0 КГц
Частота кадров : 31,250 кадров/сек (1536 spf)
Битовая глубина : 16 бит
Метод сжатия : С потерями
Размер потока : 306 Мбайт (14%)
Заголовок : DUB [iTunes]
Язык : Russian
Default : Да
Forced : Нет

Аудио #2
Идентификатор : 3
Формат : AC-3
Формат/Информация : Audio Coding 3
Расширение режима : CM (complete main)
Параметр Endianness формата : Big
Идентификатор кодека : A_AC3
Продолжительность : 1 ч. 51 м.
Вид битрейта : Постоянный
Битрейт : 448 Кбит/сек
Каналы : 6 каналов
Расположение каналов : Front: L C R, Side: L R, LFE
Частота : 48,0 КГц
Частота кадров : 31,250 кадров/сек (1536 spf)
Битовая глубина : 16 бит
Метод сжатия : С потерями
Размер потока : 357 Мбайт (17%)
Заголовок : [Original]
Язык : English
Default : Нет
Forced : Нет

Текст #1
Идентификатор : 4
Формат : UTF-8
Идентификатор кодека : S_TEXT/UTF8
Идентификатор кодека/Информация : UTF-8 Plain Text
Продолжительность : 1 ч. 50 м.
Битрейт : 100 бит/сек
Count of elements : 2538
Размер потока : 81,0 Кбайт (0%)
Заголовок : Full
Язык : English
Default : Нет
Forced : Нет

Текст #2
Идентификатор : 5
Формат : UTF-8
Идентификатор кодека : S_TEXT/UTF8
Идентификатор кодека/Информация : UTF-8 Plain Text
Продолжительность : 1 ч. 50 м.
Битрейт : 103 бит/сек
Count of elements : 2632
Размер потока : 84,4 Кбайт (0%)
Заголовок : SDH
Язык : English
Default : Нет
Forced : Нет

Меню
00:00:00.000 : :Глава 01
00:04:38.278 : :Глава 02
00:08:25.922 : :Глава 03
00:13:20.008 : :Глава 04
00:19:08.856 : :Глава 05
00:26:36.178 : :Глава 06
00:29:53.625 : :Глава 07
00:37:48.516 : :Глава 08
00:41:07.173 : :Глава 09
00:46:41.298 : :Глава 10
00:49:57.828 : :Глава 11
00:58:33.468 : :Глава 12
01:04:17.562 : :Глава 13
01:11:00.089 : :Глава 14
01:15:00.704 : :Глава 15
01:21:13.076 : :Глава 16
01:29:01.086 : :Глава 17
01:33:56.297 : :Глава 18
01:39:33.759 : :Глава 19
01:46:36.056 : :Глава 20

pb.wtf



Скачать Вечерняя школа через торрент https://i109.fastpic.ru/big/2019/0118/8f/1f5d05abbe108f66d39fbf3fcf113c8f.jpg Скачать фильм Вечерняя школа через торрент бесплантно в хорошем качестве Описание: Тедди добился успеха в жизни: нет образования, девушка ушла, и он работает в костюме курицы возле стрип-клуба. У него есть ... 9.8 10 28
Info! Золотая раздача, скачанное не засчитывается.
Торрент: Зарегистрирован [2019-01-18 05:09] · скачан: 1 543 раз
Статус: √ проверено
Размер: 2.06 GB
Как cкачать? Как скачать Вечерняя школа через торрент | qTorrent

% Раздел Тема Автор DL S | L
Фильмы (HD 720p, 1080p) (48-60 fps) [ 12.44 GB ] Вечерняя школа / Night School [2018 BDRip 720p 60 fps] - sheker187 Скачать
1 | 0
Ultra HD (UHD: 2K, 4K, 8K) — видео сверхвысокой чёткости [ 15.3 GB ] Вечерняя школа / Night School [2018 UHD BDRip 2160p] bober100 Скачать
1 | 0
Фильмы 2018 [DVDrip, WEB-DLRip, HDrip] (DUB, MVO) [ 1.41 GB ] Вечерняя школа / Night School [2018 BDRip] - Twi7ter Скачать
9 | 0
Фильмы 2018 [DVDrip, WEB-DLRip, HDrip] (DUB, MVO) [ 1.41 GB ] Вечерняя школа / Night School [2018 BDRip] bober100 Скачать
4 | 0
Фильмы [HD 720p, 1080p] (Хороший звук DUB, MVO) [ 9.24 GB ] Вечерняя школа / Night School [2018 BDRip 1080p] bober100 Скачать
4 | 0
Фильмы 2018 [DVDrip, WEB-DLRip, HDrip] (DUB, MVO) [ 745 MB ] Вечерняя школа / Night School [2018 HDRip] bober100 Скачать
1 | 0
Фильмы [HD 720p, 1080p] (Хороший звук DUB, MVO) [ 4.97 GB ] Вечерняя школа / Night School [2018 BDRip 720p] bober100 Скачать
3 | 0

28-11-2019 20:33  

Отключить всю рекламу на сайте

20-01-2019 17:30 Вечерняя школа Скачать торрент  

Не могу понять что со звуком,то есть с переводом.
Он у меня сначала как из бочки и очень тихий а потом вообще пропадает!
У кого-то есть такое?pb.wtf



    Дорогой пользователь! Огромная просьба, поблагодарите релизера, оцените раздачу и оставьте свои комментарий, если Вы скачали Вечерняя школа через торрент бесплатно! Внесите свою лепту в развитие PiratBit!
    Комментировать посты могут только пользователи прошедшие не сложную регистрацию
    Показать сообщения:    

    Вечерняя школа через торрент
    Скачать бесплатно Вечерняя школа
    Вечерняя школа скачать торрент
    Вечерняя школа смотреть онлайн
    Cкачать фильм Вечерняя школа бесплатно
    Вечерняя школа скачать торрент в хорошем качестве
    Вечерняя школа смотреть онлайн бесплатно в хорошем качестве


    Вы не можете начинать темы
    Вы не можете отвечать на сообщения
    Вы не можете редактировать свои сообщения
    Вы не можете удалять свои сообщения
    Вы не можете голосовать в опросах
    Вы не можете прикреплять файлы к сообщениям
    Вы можете скачивать файлы