Достать ножи: Стеклянная луковица

MVO

Добыча

Дубляж

Уэнсдэй

1 сезон

Тор

Дубляж

13 клиническая

1 сезон

Жестокая ночь

MVO

Одни из нас

1 сезон

Deluxe

pack

Рекомендуем

30

Пиратка

ВАЖНО

ВАЖНО

Ghostwire

Пиратка

jed

RePack

nioh2

RePack

RDR2

RePack

NEED FOR SPEED™ PAYBACK

RePack

скачать торрент

Кинопоиск HD

Острые козырьки 6 сезон

6 сезон

FAR CRY 6

RePack

скачать торрент

Лицензия

скачать торрент

MVO

1

1 сезон

скачать торрент

1 сезон

скачать торрент

Лицензия

  

Тайна дома с часами / The House with a Clock in Its Walls (Элай Рот) [2018, ужасы, фантастика, фэнтези, триллер, комедия, детектив, BDRip 1080p] Дубляж (rus, ukr) [Лицензия]

Тайна дома с часами через торрент pb.wtf

Размер: 13.09 GB | Добавлен: 4 года назад | Торрент скачан:783 раза
Смотреть онлайн | Скачать | Поддержите нас   

18-01-2019 05:50 Тайна дома с часами Скачать торрент  

Тайна дома с часами / The House with a Clock in Its Walls Год выпуска: 2018
Страна: США Канада Индия
Жанр: ужасы, фантастика, фэнтези, триллер, комедия, детектив
Продолжительность: 01:45:03
Перевод: Дублированный | Лицензия
Субтитры: русские (forced + full + Focs), английские (full + SDH)

Режиссер: Элай Рот

rating

В ролях:

Джек Блэк, Кейт Бланшетт, Оуэн Ваккаро, Кайл МакЛоклен, Рене Голдсберри, Коллин Кэмп, Санни Сулджик, Лоренца Иззо, Брэкстон Бьеркен, Ванесса Энн Уильямс

Описание:

Первое, что услышал Льюис, ступив на порог загадочного особняка своего дяди, - это тиканье часов, раздававшееся из древних стен. Он окунается в мир магии и колдовства, о существовании которого даже не подозревал. Здесь оживают картины, обитают невероятные создания, а сердце дома хранит тайну времени.

Качество: BDRip 1080p
Формат: MKV

Видео: 1920x804 (2.40:1), 23.976 fps, MPEG-4 AVC ~14.8 Mbps avg
Аудио#1: 48.0 kHz, Digital Theater Systems, 3/2 (L,C,R,l,r) + LFE ch, ~768 kbps | RUS |
Аудио#2: 48.0 kHz, AC3 Dolby Digital, 2/0 (L,R) ch, ~192 kbps | UKR / студия LeDoyen |
Аудио#3: 48.0 kHz, Digital Theater Systems, 3/2 (L,C,R,l,r) + LFE ch, ~1509 kbps | ENG |
Аудио#4: 48.0 kHz, AC3 Dolby Digital, 2/0 (L,R) ch, ~192 kbps | ENG / Commentary |
скриншот  скриншот  скриншот  

General
Формат : Matroska
Версия формата : Version 4
Размер файла : 13,1 Гбайт
Продолжительность : 1 ч. 45 м.
Общий поток : 17,8 Мбит/сек
Дата кодирования : UTC 2019-01-18 02:38:22
Программа кодирования : mkvmerge v20.0.0 ('I Am The Sun') 64-bit
Библиотека кодирования : libebml v1.3.5 + libmatroska v1.4.8
Видео
Идентификатор : 1
Формат : AVC
Формат/Информация : Advanced Video Codec
Профиль формата : [email protected]
Настройки формата : CABAC / 5 Ref Frames
Параметр CABAC формата : Да
Параметр RefFrames формата : 5 кадров
Идентификатор кодека : V_MPEG4/ISO/AVC
Продолжительность : 1 ч. 45 м.
Битрейт : 15,2 Мбит/сек
Ширина : 1920 пикселей
Высота : 804 пикселя
Соотношение сторон : 2,40:1
Режим частоты кадров : Постоянный
Частота кадров : 23,976 (24000/1001) кадра/сек
Цветовое пространство : YUV
Субдискретизация насыщенности : 4:2:0
Битовая глубина : 8 бит
Тип развёртки : Прогрессивная
Бит/(Пиксели*Кадры) : 0.410
Размер потока : 11,1 Гбайт (85%)
Библиотека кодирования : x264 core 150 r2833+21 82447f2 VietHD_Custom
Настройки программы : cabac=1 / ref=5 / deblock=1:-3:-3 / analyse=0x3:0x133 / me=umh / subme=10 / psy=1 / fade_compensate=0.00 / psy_rd=1.08:0.00 / mixed_ref=1 / me_range=24 / chroma_me=1 / trellis=2 / 8x8dct=1 / cqm=0 / deadzone=21,11 / fast_pskip=0 / chroma_qp_offset=-2 / threads=12 / lookahead_threads=2 / sliced_threads=0 / nr=0 / decimate=0 / interlaced=0 / bluray_compat=0 / constrained_intra=0 / fgo=0 / bframes=8 / b_pyramid=2 / b_adapt=2 / b_bias=0 / direct=3 / weightb=1 / open_gop=0 / weightp=2 / keyint=250 / keyint_min=23 / scenecut=40 / intra_refresh=0 / rc_lookahead=60 / rc=crf / mbtree=0 / crf=16.5000 / qcomp=0.60 / qpmin=0:0:0 / qpmax=69:69:69 / qpstep=4 / vbv_maxrate=62500 / vbv_bufsize=78125 / crf_max=0.0 / nal_hrd=none / filler=0 / ip_ratio=1.30 / pb_ratio=1.20 / aq=3:0.75 / aq-sensitivity=10.00 / aq-factor=1.00:1.00:1.00 / aq2=0 / aq3=0 / zones=670,1470,crf=12.5
Default : Нет
Forced : Нет
Цветовой диапазон : Limited
Коэффициенты матрицы : BT.709

Аудио #1
Идентификатор : 2
Формат : DTS
Формат/Информация : Digital Theater Systems
Идентификатор кодека : A_DTS
Продолжительность : 1 ч. 45 м.
Вид битрейта : Постоянный
Битрейт : 768 Кбит/сек
Каналы : 6 каналов
Channel layout : C L R Ls Rs LFE
Частота : 48,0 КГц
Частота кадров : 93,750 кадра/сек (512 SPF)
Битовая глубина : 24 бит
Метод сжатия : С потерями
Размер потока : 577 Мбайт (4%)
Заголовок : BD CEE
Язык : Russian
Default : Да
Forced : Нет

Аудио #2
Идентификатор : 3
Формат : AC-3
Формат/Информация : Audio Coding 3
Коммерческое название : Dolby Digital
Идентификатор кодека : A_AC3
Продолжительность : 1 ч. 45 м.
Вид битрейта : Постоянный
Битрейт : 192 Кбит/сек
Каналы : 2 канала
Channel layout : L R
Частота : 48,0 КГц
Частота кадров : 31,250 кадров/сек (1536 SPF)
Битовая глубина : 16 бит
Метод сжатия : С потерями
Размер потока : 144 Мбайт (1%)
Заголовок : Студия LeDoyen
Язык : Ukrainian
Default : Нет
Forced : Нет

Аудио #3
Идентификатор : 4
Формат : DTS
Формат/Информация : Digital Theater Systems
Идентификатор кодека : A_DTS
Продолжительность : 1 ч. 45 м.
Вид битрейта : Постоянный
Битрейт : 1509 Кбит/сек
Каналы : 6 каналов
Channel layout : C L R Ls Rs LFE
Частота : 48,0 КГц
Частота кадров : 93,750 кадра/сек (512 SPF)
Битовая глубина : 24 бит
Метод сжатия : С потерями
Размер потока : 1,11 Гбайт (8%)
Заголовок : Original
Язык : English
Default : Нет
Forced : Нет

Аудио #4
Идентификатор : 5
Формат : AC-3
Формат/Информация : Audio Coding 3
Коммерческое название : Dolby Digital
Идентификатор кодека : A_AC3
Продолжительность : 1 ч. 45 м.
Вид битрейта : Постоянный
Битрейт : 192 Кбит/сек
Каналы : 2 канала
Channel layout : L R
Частота : 48,0 КГц
Частота кадров : 31,250 кадров/сек (1536 SPF)
Битовая глубина : 16 бит
Метод сжатия : С потерями
Размер потока : 144 Мбайт (1%)
Заголовок : Commentary
Язык : English
Default : Нет
Forced : Нет

Текст #1
Идентификатор : 6
Формат : UTF-8
Идентификатор кодека : S_TEXT/UTF8
Идентификатор кодека/Информация : UTF-8 Plain Text
Продолжительность : 1 ч. 44 м.
Битрейт : 1 бит/сек
ElementCount : 23
Размер потока : 1,04 Кбайт (0%)
Заголовок : Forced
Язык : Russian
Default : Да
Forced : Да

Текст #2
Идентификатор : 7
Формат : UTF-8
Идентификатор кодека : S_TEXT/UTF8
Идентификатор кодека/Информация : UTF-8 Plain Text
Продолжительность : 1 ч. 44 м.
Битрейт : 80 бит/сек
ElementCount : 1258
Размер потока : 61,4 Кбайт (0%)
Заголовок : BD CEE
Язык : Russian
Default : Нет
Forced : Нет

Текст #3
Идентификатор : 8
Формат : UTF-8
Идентификатор кодека : S_TEXT/UTF8
Идентификатор кодека/Информация : UTF-8 Plain Text
Продолжительность : 1 ч. 37 м.
Битрейт : 89 бит/сек
ElementCount : 1520
Размер потока : 64,1 Кбайт (0%)
Заголовок : FOCS
Язык : Russian
Default : Нет
Forced : Нет

Текст #4
Идентификатор : 9
Формат : UTF-8
Идентификатор кодека : S_TEXT/UTF8
Идентификатор кодека/Информация : UTF-8 Plain Text
Продолжительность : 1 ч. 37 м.
Битрейт : 55 бит/сек
ElementCount : 1288
Размер потока : 39,7 Кбайт (0%)
Заголовок : Full
Язык : English
Default : Нет
Forced : Нет

Текст #5
Идентификатор : 10
Формат : UTF-8
Идентификатор кодека : S_TEXT/UTF8
Идентификатор кодека/Информация : UTF-8 Plain Text
Продолжительность : 1 ч. 39 м.
Битрейт : 66 бит/сек
ElementCount : 1629
Размер потока : 48,1 Кбайт (0%)
Заголовок : SDH
Язык : English
Default : Нет
Forced : Нет

Меню
00:00:00.000 : :Chapter 01
00:05:32.707 : :Chapter 02
00:11:59.636 : :Chapter 03
00:16:41.792 : :Chapter 04
00:22:41.986 : :Chapter 05
00:27:43.537 : :Chapter 06
00:31:11.495 : :Chapter 07
00:34:58.346 : :Chapter 08
00:39:05.843 : :Chapter 09
00:44:35.423 : :Chapter 10
00:49:56.035 : :Chapter 11
00:53:44.221 : :Chapter 12
00:58:07.734 : :Chapter 13
01:05:02.065 : :Chapter 14
01:11:44.842 : :Chapter 15
01:15:59.638 : :Chapter 16
01:21:33.806 : :Chapter 17
01:26:39.986 : :Chapter 18
01:33:34.651 : :Chapter 19
01:39:03.938 : :Chapter 20




Скачать Тайна дома с часами через торрент http://img14.lostpic.net/2018/12/16/a76008082ca5bdb8c819bd1bb03a9cfa.jpg Скачать, смотреть онлайн Тайна дома с часами бесплантно в хорошем качестве Описание: Первое, что услышал Льюис, ступив на порог загадочного особняка своего дяди, - это тиканье часов, раздававшееся из древних стен. ... 9.7 10 21
Info! Золотая раздача, скачанное не засчитывается.
Торрент: Зарегистрирован [2019-01-18 05:50] · скачан: 783 раз
Статус: √ проверено
Размер: 13.09 GB
Как cкачать? Как скачать Тайна дома с часами через торрент | UTorrent

% Раздел Тема Автор DL S | L
Ultra HD (UHD: 2K, 4K, 8K) [ 12.86 GB ] Тайна дома с часами / The House with a Clock in Its Walls | Лицензия | 2160p sheker187 Скачать
1 | 0
Ultra HD (UHD: 2K, 4K, 8K) [ 45.16 GB ] Тайна дома с часами / The House with a Clock in Its Walls | Лицензия | 2160p sheker187 Скачать
1 | 0
Фильмы 2018 [DVDrip, WEB-DLRip, HDrip] (DUB, MVO) [ 1.46 GB ] Тайна дома с часами / The House with a Clock in Its Walls | Лицензия | BDRip Twi7ter Скачать
1 | 0
Фильмы (Blu-ray, BD-Remux, HDDVD) [ 24.63 GB ] Тайна дома с часами / The House with a Clock in Its Walls | Лицензия | BD Remux 1080p bober100 Скачать
1 | 0
Фильмы 2018 [DVDrip, WEB-DLRip, HDrip] (DUB, MVO) [ 745 MB ] Тайна дома с часами / The House with a Clock in Its Walls | Лицензия | BDRip bober100 Скачать
1 | 0
Ultra HD (UHD: 2K, 4K, 8K) [ 22.49 GB ] Тайна дома с часами / The House with a Clock in Its Walls | Лицензия | 2160p sheker187 Скачать
1 | 0
Фильмы [HD 720p, 1080p] (Хороший звук DUB, MVO) [ 4.89 GB ] Тайна дома с часами / The House with a Clock in Its Walls | Лицензия | 720p bober100 Скачать
2 | 0

28-11-2019 20:33  


Отключить вcю реклaмy на сайте, в т.ч. и в плеере онлайн просмотра!

18-01-2019 16:11 Тайна дома с часами Скачать торрент  

здесь перевод украинский



21-01-2019 08:10 Тайна дома с часами Скачать торрент  

халкхоган писал(а):

здесь перевод украинский

выберите другую аудиодорожку



    Дорогой пользователь! Огромная просьба, поблагодарите релизера, оцените раздачу и оставьте свои комментарий, если Вы скачали Тайна дома с часами через торрент бесплатно!!
    Комментировать посты могут только пользователи прошедшие не сложную регистрацию
    Показать сообщения:    


    Тайна дома с часами через торрент
    Скачать бесплатно Тайна дома с часами
    Тайна дома с часами скачать торрент
    Тайна дома с часами смотреть онлайн
    Cкачать фильм Тайна дома с часами бесплатно
    Тайна дома с часами скачать торрент в хорошем качестве
    Тайна дома с часами смотреть онлайн бесплатно в хорошем качестве
    Вы не можете начинать темы
    Вы не можете отвечать на сообщения
    Вы не можете редактировать свои сообщения
    Вы не можете удалять свои сообщения
    Вы не можете голосовать в опросах
    Вы не можете прикреплять файлы к сообщениям
    Вы можете скачивать файлы
    Тайна дома с часами / The House with a Clock in Its Walls [2018, ужасы, фантастика, фэнтези, триллер, комедия, детектив, BDRip 1080p] Дубляж [Лицензия] смотреть онлайн, скачать торрент picoco.icu