Ссылка на приватное зеркало нашего сайта всего за 1$. Внимание количество ограничено!!!

2 сезон

iTunes

1 сезон

1

2 сезон

2 сезон

iTunes

1 сезон

RePack

30

Новинка

ВАЖНО

ИГРА 18+

pack

RePack

MK11
pack

Забери бонус

RePack

jed

!!Акция!!

Alien_Rage

RePack

fifa19

RePack

Assassins Creed: Odyssey

RePack

NEED FOR SPEED™ PAYBACK

4 сезон

9 сезон

Бесстыжие 9 сезон

Все сериалы

все сериалы на PB.wtf

RePack

FAR CRY 5
  

Перерождение / The Passage / Сезон: 1 / Серии: 1-10 из 10 (Джейсон Энслер, Эллисон Лидди, Jessica Lowrey) [2019, ужасы, фэнтези, боевик, драма, приключения, WEB-DL 1080p] MVO [Lostfilm] pb.wtf

Перерождение через торрент pb.wtf

Размер: 30.85 GB | Добавлен: 1 год 8 мес. назад | Торрент скачан:13 раз
Скачать  

18-01-2019 06:01 Перерождение Скачать торрент  

Перерождение / The Passage Год выпуска: 2019
Страна: США
Жанр: ужасы, фэнтези, боевик, драма, приключения
Продолжительность: 01:00:00
Перевод: Профессиональный (многоголосый закадровый) | Lostfilm
Субтитры: Русские (Forced), Английские (SDH)

Режиссёр: Джейсон Энслер, Эллисон Лидди, Jessica Lowrey

В ролях:

Марк-Пол Госселаар, Саня Сидни, Джейми МакШейн, Кэролайн Чикези, Эммануэль Шрики, Брианна Хоуи, МакКинли Белчер III, Генри Йен Кьюсик, Винсент Пьяцца, Брианна Браун

Описание:

"Перерождение" - это научно-фантастический сериал, основанный на трилогии Джастина Кронина о вампирском апокалипсисе. Создательницей проекта выступила Лиз Хелденс, работавшая над "Орвиллом" и "Огнями ночной пятницы", а Джейсон Энслер, заведовавший производством мистического триллера "Культ", поставил несколько эпизодов шоу. Признанный мастер сай-фая Ридли Скотт значится продюсером, что является своеобразным знаком качества любого проекта. "Перерождение" должно прийтись по вкусу как любителям хорроров, так и поклонникам боевиков, поскольку сериал наполнен кровавым динамичным экшеном. При этом кровопийцы не выглядят сексуальными красавчиками, как в "Дневниках вампира", а скорее жуткими инфицированными больными, чья отвратительная внешность отлично подчеркнута характерным гримом. Шоу канала Fox не может позволить себе такое же обилие крови, как "Ходячие мертвецы", но недостаток расчлененки с лихвой компенсируется углублением в психологические страхи - массовые смерти, серые области медицинской этики, вторжение в частную жизнь и необходимость оставить близких в прошлом. А у "Остаться в живых" проект перенял повествование с помощью флэшбэков, конспирологические загадки, а также Генри Йена Кьюсика, исполнявшего роль Десмонда.

Сюжет: В центре сюжета - секретное военное медицинское учреждение под названием "Проект Ной", где ученые экспериментируют с опасным вирусом, который может излечить все болезни, но также несет в себе потенциал уничтожить человеческую расу. Когда медики не смогли получить желаемых результатов ни с одним из дюжины заключенных, приговоренных к смертной казни, они решают, что ключом к разгадке может быть ребенок. Поэтому руководство поручает федеральному агенту Брэду Волгасту (Марк-Пол Госселаар) привести в заведение юную девочку, Эми Беллафонте (Саня Сидни). Однако Волгаст не решается отдать ее для жутких экспериментов и стремится защитить любой ценой. На пути у Брэда и Эми встают ведущая ученая проекта, майор Николь Сайкс (Кэролайн Чикези), и закаленный бывший агент ЦРУ Кларк Ричардс (Винсент Пьяцца), которого обучал сам Волгаст. Помимо военных герои также сталкиваются лицом к лицу с новой опасной расой кровопийц, заключенных в стенах "Проекта Ной". В то время, как ученые загадочного заведения начинают тестировать лекарство, которое может спасти человечество, эти жуткие инфицированные существа наращивают собственные силы, с каждым днем становясь на шаг ближе к выходу в мир. Если они сбегут, человечество окажется на грани апокалипсиса...



Качество: WEB-DL 1080p (AMAZON)
Контейнер: MKV

Видео: H.264/AVC, 1920x1080p (1.78:1), 23.976 fps, ~7112 kbps, ~0.143 bit/pixel
Аудио №1: Русский E-AC3/DD+ 5.1, 48 kHz, 640 kbps
Аудио №2: Английский E-AC3/DD+ 5.1, 48 kHz, 640 kbps

Работа со звуком itunestv@eniahd
01. Pilot (2019-01-14) / Пилот (17.01.2019 20:32:47)
02. You Owe Me a Unicorn (2019-01-21)
03. That Should Never Have Happened to You (2019-01-28)
General
Unique ID                                : 175775109059041349153605864722573148097 (0x843D0DFA5CB9113352A992EC5ECDBFC1)
Complete name                            : The.Passage.S01E01.Pilot.1080p.AMZN.WEB-DL.H.264.RUS.LF.DDP5.1-EniaHD.mkv
Format                                   : Matroska
Format version                           : Version 4 / Version 2
File size                                : 2.65 GiB
Duration                                 : 45 min 10 s
Overall bit rate                         : 8 395 kb/s
Movie name                               : The Passage, Season 1 / Pilot
Track name/Position                      : 1
Track name/Total                         : 0
Description                              : As an imminent flu epidemic threatens the U.S., Federal Agent Brad Wolgast is the man tasked with bringing in the experiment's latest chosen test subject, a ten-year-old girl, Amy Bellafonte. But, after meeting Amy, Brad's loyalties to Project NOAH are tested and ultimately, he tries to protect her at any cost.
Released date                            : UTC 2019-01-15 02:00:00
Writing application                      : mkvmerge v30.1.0 ('Forever And More') 64-bit
Writing library                          : libebml v1.3.6 + libmatroska v1.4.9
Copyright                                : aXR1bmVzdHZAZW5pYWhkLmNvbQ==
Cover                                    : Yes
Attachments                              : small_cover.jpg / cover.jpg

Video
ID                                       : 1
Format                                   : AVC
Format/Info                              : Advanced Video Codec
Format profile                           : High@L4
Format settings                          : CABAC / 4 Ref Frames
Format settings, CABAC                   : Yes
Format settings, RefFrames               : 4 frames
Codec ID                                 : V_MPEG4/ISO/AVC
Duration                                 : 45 min 10 s
Bit rate                                 : 7 112 kb/s
Width                                    : 1 920 pixels
Height                                   : 1 080 pixels
Display aspect ratio                     : 16:9
Frame rate mode                          : Constant
Frame rate                               : 23.976 (24000/1001) FPS
Color space                              : YUV
Chroma subsampling                       : 4:2:0
Bit depth                                : 8 bits
Scan type                                : Progressive
Bits/(Pixel*Frame)                       : 0.143
Stream size                              : 2.24 GiB (85%)
Language                                 : English
Default                                  : Yes
Forced                                   : No
Color range                              : Limited
Color primaries                          : BT.709
Transfer characteristics                 : BT.709
Matrix coefficients                      : BT.709

Audio #1
ID                                       : 2
Format                                   : E-AC-3
Format/Info                              : Enhanced Audio Coding 3
Format settings, Endianness              : Big
Codec ID                                 : A_EAC3
Duration                                 : 45 min 10 s
Bit rate mode                            : Constant
Bit rate                                 : 640 kb/s
Channel(s)                               : 6 channels
Channel positions                        : Front: L C R, Side: L R, LFE
Sampling rate                            : 48.0 kHz
Frame rate                               : 187.500 FPS (256 SPF)
Compression mode                         : Lossy
Stream size                              : 207 MiB (8%)
Title                                    : E-AC3 5.1 @ 640 kbps - MVO, Lostfilm
Language                                 : Russian
Service kind                             : Complete Main
Default                                  : Yes
Forced                                   : No
Released date                            : UTC 2019-01-17 20:32:47

Audio #2
ID                                       : 3
Format                                   : E-AC-3
Format/Info                              : Enhanced Audio Coding 3
Format settings, Endianness              : Big
Codec ID                                 : A_EAC3
Duration                                 : 45 min 10 s
Bit rate mode                            : Constant
Bit rate                                 : 640 kb/s
Channel(s)                               : 6 channels
Channel positions                        : Front: L C R, Side: L R, LFE
Sampling rate                            : 48.0 kHz
Frame rate                               : 187.500 FPS (256 SPF)
Compression mode                         : Lossy
Stream size                              : 207 MiB (8%)
Title                                    : E-AC3 5.1 @ 640 kbps - Original
Language                                 : English
Service kind                             : Complete Main
Default                                  : No
Forced                                   : No

Text #1
ID                                       : 4
Format                                   : UTF-8
Codec ID                                 : S_TEXT/UTF8
Codec ID/Info                            : UTF-8 Plain Text
Duration                                 : 7 min 58 s
Bit rate                                 : 2 b/s
Count of elements                        : 2
Stream size                              : 122 Bytes (0%)
Title                                    : Forced
Language                                 : Russian
Default                                  : Yes
Forced                                   : Yes

Text #2
ID                                       : 5
Format                                   : UTF-8
Codec ID                                 : S_TEXT/UTF8
Codec ID/Info                            : UTF-8 Plain Text
Duration                                 : 45 min 4 s
Bit rate                                 : 70 b/s
Count of elements                        : 817
Stream size                              : 23.2 KiB (0%)
Title                                    : SDH
Language                                 : English
Default                                  : No
Forced                                   : No
Когда раздача ведётся путём добавления новых серий, при каждом добавлении создётся новый торрент. Чтобы начать докачку новой серии, пользователям необходимо сделать следующее:
(1) остановить скачивание,
(2) удалить старый торрент у себя из клиента (старые серии удалять не надо),
(3) скачать новый торрент и запустить его у себя в клиенте вместо старого, при этом указать клиенту путь в старую папку, куда и должно происходить скачивание новых серий.
Ваш клиент при этом должен произвести хеширование (проверку) старой папки (если не производит сам - помогите ему сделать это), и будет докачивать только те серии, которых у вас ещё нет. Старые серии при этом не удаляются, а продолжают раздаваться!
Eсли вы уже удалили старые серии, то предотвратить повторную закачку старых серий можно, отжав галочку в соответсвующих местах при запуске нового торрента. По возможности, желательно не удалять старые серии как можно дольше, чтобы релизёр не столько продолжал раздавать старые серии, а смог сконцентрироваться на новых.
pb.wtf



Скачать Перерождение через торрент https://m.media-amazon.com/images/M/MV5BNjcyMjA2MjUwMF5BMl5BanBnXkFtZTgwMDA3OTY3NjM@._V1_SY500_CR0,0,0,500_AL_.jpg Скачать фильм Перерождение через торрент бесплантно в хорошем качестве Описание: "Перерождение" - это научно-фантастический сериал, основанный на трилогии Джастина Кронина о вампирском апокалипсисе. ... 10 10 5
Торрент: Зарегистрирован [2019-03-22 12:16] · скачан: 13 раз
Статус: √ проверено
Размер: 30.85 GB
Как cкачать? Как скачать Перерождение через торрент | qTorrent

% Раздел Тема Автор DL S | L
Зарубежные сериалы [ 29.39 GB ] Перерождение / The Passage / Сезон: 1 / Серии: 1-10 из 10 [2019 WEBRip 1080p] [MVO] killermax2013 Скачать
1 | 0
Зарубежные сериалы [ 7.35 GB ] Перерождение / The Passage / Сезон: 1 / Серии: 1-10 из 10 [2019 WEBRip] [MVO] killermax2013 Скачать
1 | 0
Зарубежные сериалы [ 6.14 GB ] Перерождение / The Passage / Сезон: 1 / Серии: 1-10 из 10 [2019 WEB-DLRip] MVO [Lostfilm] bober100 Скачать
1 | 0
Зарубежные сериалы [ 5.24 GB ] Перерождение / The Passage / Сезон: 1 / Серии 1-10 из 10 [2019 WEB-DLRip] [MVO] killermax2013 Скачать
1 | 0
Зарубежные сериалы [ 13.23 GB ] Перерождение / The Passage / Сезон: 1 / Серии 1-10 из 10 [2019 WEB-DL 720p] [MVO] killermax2013 Скачать
1 | 0
Зарубежные сериалы [ 15.15 GB ] Перерождение / The Passage / Сезон: 1 / Серии 1-10 из 10 [2019 WEB-DL 720p] [MVO] killermax2013 Скачать
1 | 0


Последний раз редактировалось: bober100 (2019-03-22 12:16), всего редактировалось 6 раз(а)

28-11-2019 20:33  

Отключить всю рекламу на сайте

31-01-2019 09:33 Перерождение Скачать торрент  

вроде вполне приличный серик. надо глянуть
трейлер:


pb.wtf



    Дорогой пользователь! Огромная просьба, поблагодарите релизера, оцените раздачу и оставьте свои комментарий, если Вы скачали Перерождение через торрент бесплатно! Внесите свою лепту в развитие PiratBit!
    Комментировать посты могут только пользователи прошедшие не сложную регистрацию
    Показать сообщения:    

    Перерождение через торрент
    Скачать бесплатно Перерождение
    Перерождение скачать торрент
    Перерождение смотреть онлайн
    Cкачать фильм Перерождение бесплатно
    Перерождение скачать торрент в хорошем качестве
    Перерождение смотреть онлайн бесплатно в хорошем качестве


    Вы не можете начинать темы
    Вы не можете отвечать на сообщения
    Вы не можете редактировать свои сообщения
    Вы не можете удалять свои сообщения
    Вы не можете голосовать в опросах
    Вы не можете прикреплять файлы к сообщениям
    Вы можете скачивать файлы