Ссылка на приватное зеркало нашего сайта всего за 1$. Внимание количество ограничено!!!

2 сезон

iTunes

1 сезон

1

2 сезон

2 сезон

iTunes

1 сезон

RePack

30

Ultimate

ВАЖНО

ИГРА 18+

pack

RePack

MK11
pack

Забери бонус

RePack

jed

!!Акция!!

Alien_Rage

RePack

fifa19

RePack

Assassins Creed: Odyssey

RePack

NEED FOR SPEED™ PAYBACK

4 сезон

9 сезон

Бесстыжие 9 сезон

Все сериалы

все сериалы на PB.wtf

RePack

FAR CRY 5
  

Как избежать наказания за убийство / How to Get Away with Murder / Сезон: 5 / Серии: 1-15 из 15 (Билл Д’Элиа, Майкл Оффер) [2018, Драма, криминал, детектив, WEB-DL 720p] [MVO] (TVShows) pb.wtf

Как избежать наказания за убийство через торрент pb.wtf

Размер: 18.22 GB | Добавлен: 1 год 8 мес. назад | Торрент скачан:26 раз
Скачать  

18-01-2019 09:13 Как избежать наказания за убийство Скачать торрент  

Как избежать наказания за убийство / How to Get Away with Murder

Год выпуска: 2018
Страна: США
Жанр: Драма, криминал, детектив
Продолжительность: ~ 00:44:00

Перевод: Профессиональный (многоголосый закадровый) | TVShows

Режиссёр: Билл Д’Элиа, Майкл Оффер

В ролях: Виола Дэвис, Чарли Вебер, Карен Кабрера, Билли Браун, Альфред Энок, Джек Фалахи, Кэти Финдлей, Аджа Наоми Кинг и др.

Описание: После смерти Уэса, Эннализ Киттинг и ее команда пытаются прийти в себя и вернуть жизнь на круги свая. Но получится-ли, если у некогда самого лучшего адвоката хотят забрать лицензию практики, и, возможно, этому никак не удастся помешать?

скриншот  

Качество: WEB-DL 720p
Формат: MKV
Видео: MPEG4 Video (H264) 1280x720, 23.976fps, ~ 1784 kb/s
Аудио 1: AC3, 48,0 КГц, 6 ch, 384 kbps - RUS
Аудио 2: E-AC3, 48,0 КГц, 6 ch, 640 kbps - ENG
Субтитры: английские
Complete name :How.to.Get.Away.with.Murder.S05E02.720p.TVShows.mkv
Format : Matroska
Format version : Version 4 / Version 2
File size : 875 MiB
Duration : 43 min 3 s
Overall bit rate : 2 841 kb/s
Encoded date : UTC 2018-10-23 11:01:09
Writing application : mkvmerge v24.0.0 ('Beyond The Pale') 64-bit
Writing library : libebml v1.3.6 + libmatroska v1.4.9

Video
ID : 1
Format : AVC
Format/Info : Advanced Video Codec
Format profile : High@L3.1
Format settings : CABAC / 5 Ref Frames
Format settings, CABAC : Yes
Format settings, ReFrames : 5 frames
Codec ID : V_MPEG4/ISO/AVC
Duration : 43 min 3 s
Bit rate : 1 815 kb/s
Width : 1 280 pixels
Height : 720 pixels
Display aspect ratio : 16:9
Frame rate mode : Constant
Frame rate : 23.976 (24000/1001) FPS
Color space : YUV
Chroma subsampling : 4:2:0
Bit depth : 8 bits
Scan type : Progressive
Bits/(Pixel*Frame) : 0.082
Stream size : 559 MiB (64%)
Default : Yes
Forced : No
Color range : Limited
Color primaries : BT.709
Transfer characteristics : BT.709
Matrix coefficients : BT.709

Audio #1
ID : 2
Format : AC-3
Format/Info : Audio Coding 3
Codec ID : A_AC3
Duration : 43 min 3 s
Bit rate mode : Constant
Bit rate : 384 kb/s
Channel(s) : 6 channels
Channel positions : Front: L C R, Side: L R, LFE
Sampling rate : 48.0 kHz
Frame rate : 31.250 FPS (1536 SPF)
Bit depth : 16 bits
Compression mode : Lossy
Stream size : 118 MiB (14%)
Title : TVShows
Language : Russian
Service kind : Complete Main
Default : Yes
Forced : No

Audio #2
ID : 3
Format : E-AC-3
Format/Info : Enhanced Audio Coding 3
Codec ID : A_EAC3
Duration : 43 min 3 s
Bit rate mode : Constant
Bit rate : 640 kb/s
Channel(s) : 6 channels
Channel positions : Front: L C R, Side: L R, LFE
Sampling rate : 48.0 kHz
Frame rate : 187.500 FPS (256 SPF)
Compression mode : Lossy
Stream size : 197 MiB (23%)
Title : Original
Language : English
Service kind : Complete Main
Default : No
Forced : No

Text
ID : 4
Format : UTF-8
Codec ID : S_TEXT/UTF8
Codec ID/Info : UTF-8 Plain Text
Duration : 42 min 51 s
Bit rate : 103 b/s
Count of elements : 1073
Stream size : 32.4 KiB (0%)
Title : English
Language : English
Default : No
Forced : No
скриншот  скриншот  скриншот  
Когда раздача ведётся путём добавления новых серий, при каждом добавлении создётся новый торрент. Чтобы начать докачку новой серии, пользователям необходимо сделать следующее:
(1) остановить скачивание,
(2) удалить старый торрент у себя из клиента (старые серии удалять не надо),
(3) скачать новый торрент и запустить его у себя в клиенте вместо старого, при этом указать клиенту путь в старую папку, куда и должно происходить скачивание новых серий.
Ваш клиент при этом должен произвести хеширование (проверку) старой папки (если не производит сам - помогите ему сделать это), и будет докачивать только те серии, которых у вас ещё нет. Старые серии при этом не удаляются, а продолжают раздаваться!
Eсли вы уже удалили старые серии, то предотвратить повторную закачку старых серий можно, отжав галочку в соответсвующих местах при запуске нового торрента. По возможности, желательно не удалять старые серии как можно дольше, чтобы релизёр не столько продолжал раздавать старые серии, а смог сконцентрироваться на новых.
pb.wtf



Скачать Как избежать наказания за убийство через торрент http://i97.fastpic.ru/big/2018/1105/de/e55821ff50263cc8b7bca8abc5c2c5de.jpg Скачать фильм Как избежать наказания за убийство через торрент бесплантно в хорошем качестве Описание: После смерти Уэса, Эннализ Киттинг и ее команда пытаются прийти в себя и вернуть жизнь на круги свая. Но получится-ли, если у ... 10 10 1
Торрент: Зарегистрирован [2019-03-13 15:40] · скачан: 26 раз
Статус: √ проверено
Размер: 18.22 GB
Как cкачать? Как скачать Как избежать наказания за убийство через торрент | qTorrent

% Раздел Тема Автор DL S | L
Зарубежные сериалы [ 36.35 GB ] Как избежать наказания за убийство / How to Get Away with Murder / Сезон: 5 / Серии: 1-15 из 15 [2018 WEB-DL 1080p] [MVO] killermax2013 Скачать
1 | 0
Зарубежные сериалы [ 7.88 GB ] Как избежать наказания за убийство / How to Get Away with Murder / 5 сезон / 1-15 серия из 15 [2018 WEBRip] [MVO] killermax2013 Скачать
1 | 0

28-11-2019 20:33  

Отключить всю рекламу на сайте

    Дорогой пользователь! Огромная просьба, поблагодарите релизера, оцените раздачу и оставьте свои комментарий, если Вы скачали Как избежать наказания за убийство через торрент бесплатно! Внесите свою лепту в развитие PiratBit!
    Комментировать посты могут только пользователи прошедшие не сложную регистрацию
    Показать сообщения:    

    Как избежать наказания за убийство через торрент
    Скачать бесплатно Как избежать наказания за убийство
    Как избежать наказания за убийство скачать торрент
    Как избежать наказания за убийство смотреть онлайн
    Cкачать фильм Как избежать наказания за убийство бесплатно
    Как избежать наказания за убийство скачать торрент в хорошем качестве
    Как избежать наказания за убийство смотреть онлайн бесплатно в хорошем качестве


    Вы не можете начинать темы
    Вы не можете отвечать на сообщения
    Вы не можете редактировать свои сообщения
    Вы не можете удалять свои сообщения
    Вы не можете голосовать в опросах
    Вы не можете прикреплять файлы к сообщениям
    Вы можете скачивать файлы