Ссылка на приватное зеркало нашего сайта всего за 1$. Внимание количество ограничено!!!

2 сезон

iTunes

1 сезон

1

2 сезон

2 сезон

iTunes

1 сезон

RePack

30

Новинка

ВАЖНО

ИГРА 18+

pack

RePack

MK11
pack

Забери бонус

RePack

jed

!!Акция!!

Alien_Rage

RePack

fifa19

RePack

Assassins Creed: Odyssey

RePack

NEED FOR SPEED™ PAYBACK

4 сезон

9 сезон

Бесстыжие 9 сезон

Все сериалы

все сериалы на PB.wtf

RePack

FAR CRY 5
  

Конец ***го мира / Просто конец света на*** / The End Of The F***ing World / Сезон: 1 / Серии: 1-8 из 8 (Джонатан Энтвистл, Люси Черняк) [2017, Драма, комедия., WEBRip] [MVO] (Good People) pb.wtf

Конец ***го мира через торрент pb.wtf

Размер: 1.98 GB | Добавлен: 1 год 10 мес. назад | Торрент скачан:61 раз
Скачать  

18-01-2019 10:48 Конец ***го мира Скачать торрент  

Просто конец света на*** / The End Of The F***ing World

Год выпуска: 2017
Страна: Великобритания
Жанр: драма, комедия
Продолжительность: ~ 00:28:00

Перевод: Профессиональный (многоголосый закадровый) Good People *ПРИСУТСТВУЕТ НЕЦЕНЗУРНАЯ ЛЕКСИКА!*

Режиссёр: Джонатан Энтвистл, Люси Черняк

В ролях: Джонатан Энтвистл, Люси Черниак, Джессика Барден, Алекс Лоутер, Вунни Мосаку

Описание: Экранизация одноимённого графического романа Чарльза С. Форсмана, которого нередко называют «левшой — Фрэнком Миллером». Джеймсу семнадцать и он уверен, что он — психопат. Алисе тоже семнадцать, она — капризная новенькая девчонка в школе. Они с пол-оборота заводят подростковый роман, и Алиса уговаривает Джеймса начать поиски её отца. Джеймсу от Алисы тоже кое-что нужно…



Качество: WEBRip
Формат: AVI
Видео: XviD, ~ 1400 kbps, 720x400, 25 fps
Аудио 1: MP3, 48,0 КГц, 2 ch, 128 kbps - RUS
Аудио 2: MP3, 48,0 КГц, 2 ch, 128 kbps - ENG
Субтитры: отсутствуют
Общее
Полное имя : I:\GoodPeople\The End of the Fucking World. Season 1 (WEBRip l 400p l Good People)\The.End.of.the.Fucking.World.S01E01.WEBRip.Rus.Eng.GoodPeople.avi
Формат : AVI
Формат/Информация : Audio Video Interleave
Размер файла : 226 Мбайт
Продолжительность : 18 м. 54 с.
Общий поток : 1670 Кбит/сек
Программа кодирования : VirtualDubMod 1.5.10.3 | www.virtualdub-fr.org || (build 2550/release)
Библиотека кодирования : VirtualDubMod build 2550/release

Видео
Идентификатор : 0
Формат : MPEG-4 Visual
Профиль формата : Advanced Simple@L5
Настройки формата : BVOP2 / Custom Matrix
Параметр BVOP формата : 2
Параметр QPel формата : Нет
Параметр GMC формата : Без точки перехода
Параметр матрицы формата : Выборочная
Идентификатор кодека : XVID
Идентификатор кодека/Подсказка : XviD
Продолжительность : 18 м. 54 с.
Битрейт : 1400 Кбит/сек
Ширина : 720 пикселей
Высота : 400 пикселей
Соотношение сторон : 16:9
Частота кадров : 25,000 кадров/сек
Цветовое пространство : YUV
Субдискретизация насыщенности : 4:2:0
Битовая глубина : 8 бит
Тип развёртки : Прогрессивная
Метод сжатия : С потерями
Бит/(Пиксели*Кадры) : 0.194
Размер потока : 189 Мбайт (84%)
Библиотека кодирования : XviD 73

Аудио #1
Идентификатор : 1
Формат : MPEG Audio
Версия формата : Version 1
Профиль формата : Layer 3
Настройки формата : Joint stereo / MS Stereo
Идентификатор кодека : 55
Идентификатор кодека/Подсказка : MP3
Продолжительность : 18 м. 54 с.
Вид битрейта : Постоянный
Битрейт : 128 Кбит/сек
Каналы : 2 канала
Частота : 48,0 КГц
Метод сжатия : С потерями
Размер потока : 17,3 Мбайт (8%)
Выравнивание : Соединение по промежуткам
Продолжительность промежутка : 40 мс. (1,00 видеокадр)
Время предзагрузки промежутка : 504 мс.

Аудио #2
Идентификатор : 2
Формат : MPEG Audio
Версия формата : Version 1
Профиль формата : Layer 3
Настройки формата : Joint stereo / MS Stereo
Идентификатор кодека : 55
Идентификатор кодека/Подсказка : MP3
Продолжительность : 18 м. 54 с.
Вид битрейта : Постоянный
Битрейт : 128 Кбит/сек
Каналы : 2 канала
Частота : 48,0 КГц
Метод сжатия : С потерями
Размер потока : 17,3 Мбайт (8%)
Выравнивание : Соединение по промежуткам
Продолжительность промежутка : 40 мс. (1,00 видеокадр)
Время предзагрузки промежутка : 504 мс.
скриншот  скриншот  скриншот  
pb.wtf



Скачать Конец ***го мира через торрент http://img11.lostpic.net/2018/07/31/3e48ea2ec8c364c4797f5bbc56a44f00.jpg Скачать фильм Конец ***го мира через торрент бесплантно в хорошем качестве Описание: Экранизация одноимённого графического романа Чарльза С. Форсмана, которого нередко называют «левшой — Фрэнком Миллером». Джеймсу ... 1 10 2
Торрент: Зарегистрирован [2019-01-18 10:48] · скачан: 61 раз
Статус: √ проверено
Размер: 1.98 GB
Как cкачать? Как скачать Конец ***го мира через торрент | qTorrent

28-11-2019 20:33  

Отключить всю рекламу на сайте

    Дорогой пользователь! Огромная просьба, поблагодарите релизера, оцените раздачу и оставьте свои комментарий, если Вы скачали Конец ***го мира через торрент бесплатно! Внесите свою лепту в развитие PiratBit!
    Комментировать посты могут только пользователи прошедшие не сложную регистрацию
    Показать сообщения:    

    Конец ***го мира через торрент
    Скачать бесплатно Конец ***го мира
    Конец ***го мира скачать торрент
    Конец ***го мира смотреть онлайн
    Cкачать фильм Конец ***го мира бесплатно
    Конец ***го мира скачать торрент в хорошем качестве
    Конец ***го мира смотреть онлайн бесплатно в хорошем качестве


    Вы не можете начинать темы
    Вы не можете отвечать на сообщения
    Вы не можете редактировать свои сообщения
    Вы не можете удалять свои сообщения
    Вы не можете голосовать в опросах
    Вы не можете прикреплять файлы к сообщениям
    Вы можете скачивать файлы