Ссылка на приватное зеркало всего за 1$. Внимание количество ограничено!!!

iTunes

1+1

iTunes

мы

WEB-DL

1

iTunes

Чернобыль

iTunes

Ральф против интернета

Лицензия

ПШазам

Лицензия

Оно 2

Лицензия

30
pack

Вам бонус

ВАЖНО

!!Акция!!

Alien_RageХит недели

RePack

Resident Evil 21

ИГРА 18+

pack

RePack

jed

!!Акция!!

Alien_Rage

RePack

fifa19

RePack

Assassins Creed: Odyssey

RePack

NEED FOR SPEED™ PAYBACK

3 сезон

9 сезон

Бесстыжие 9 сезон

Все сериалы

все сериалы на PB.wtf

RePack

FAR CRY 5
Ребята, катастрофически не хватает 1900р. для оплаты серверов за Октябрь (всвязи с блокировками трафик упал в 3 раза), 1-2р., выручайте.
  

Пристанище страха / Realms (Дэрик Гейтс) [2018, ужасы, детектив, WEB-DLRip] DUB [iTunes] pb.wtf

Пристанище страха через торрент pb.wtf

Раздают: 1 [ 0 KB/s ]
Размер: 1.44 GB | Добавлен: 10 мес. назад | Торрент скачан:279 раз
Скачать  

18-01-2019 15:22 Пристанище страха Скачать торрент  

Пристанище страха / Realms Год выпуска: 2018
Страна: США
Жанр: ужасы, детектив
Продолжительность: 01:30:44
Перевод: Дублированный | iTunes
Субтитры: отсутствуют

Режиссер: Дэрик Гейтс

rating

В ролях:

Райан Келли, Мэдисон Маккинли, Прия Суандокемай, Гольф, Эйр Пхантила

Описание:

Спасаясь от погони после неудавшегося ограбления банка, два вора оказываются в уединенном особняке посреди леса. С наступлением ночи в доме становится неуютно, и герои начинают понимать, что этот особняк скрывает в своих таинственных чертогах множество зловещих секретов.

Качество: WEB-DLRip
Формат: AVI

Видео: Xvid 73, 720x304, ~1875 kbps, 23,976 fps
Аудио: русский, AC3, 5.1 ch, 48 kHz, 384 kbps | iTunes
скриншот   скриншот   скриншот   скриншот  

General
Полное имя : F:TorrentRealmsWEBDLRip.avi
Формат : AVI
Формат/Информация : Audio Video Interleave
Профиль формата : OpenDML
Размер файла : 1.44 GiB
Продолжительность : 1 h 30 min
Общий поток : 2 270 kb/s
Программа кодирования : XviD4PSP 6.0 / 54.27.101

Video
Идентификатор : 0
Формат : MPEG-4 Visual
Профиль формата : Advanced Simple@L5
Настройки формата : BVOP2 / Custom Matrix
Параметр BVOP формата : 2
Параметр QPel формата : No
Параметр GMC формата : No warppoints
Параметр матрицы формата : Custom
Идентификатор кодека : XVID
Идентификатор кодека/Подсказка : XviD
Продолжительность : 1 h 30 min
Битрейт : 1 875 kb/s
Ширина : 720 pixels
Высота : 304 pixels
Соотношение сторон : 2.35:1
Частота кадров : 23.976 (23976/1000) FPS
Цветовое пространство : YUV
Субдискретизация насыщенности : 4:2:0
Битовая глубина : 8 bits
Тип развёртки : Progressive
Метод сжатия : Lossy
Бит/(Пиксели*Кадры) : 0.357
Размер потока : 1.19 GiB (83%)
Библиотека кодирования : XviD 73

Audio
Идентификатор : 1
Формат : AC-3
Формат/Информация : Audio Coding 3
Идентификатор кодека : 2000
Продолжительность : 1 h 30 min
Вид битрейта : Constant
Битрейт : 384 kb/s
Каналы : 6 channels
Расположение каналов : Front: L C R, Side: L R, LFE
Частота : 48.0 kHz
Частота кадров : 31.250 FPS (1536 SPF)
Битовая глубина : 16 bits
Метод сжатия : Lossy
Размер потока : 249 MiB (17%)
Выравнивание : Aligned on interleaves
Продолжительность промежутка : 32 ms (0.77 video frame)

pb.wtf



Скачать Пристанище страха через торрент http://img15.lostpic.net/2018/12/23/eecfbd8530235a65050d655b200ebb8c.jpg Скачать фильм Пристанище страха через торрент бесплантно в хорошем качестве Описание: Спасаясь от погони после неудавшегося ограбления банка, два вора оказываются в уединенном особняке посреди леса. С наступлением ... 9.4 10 15
Торрент: Зарегистрирован [2019-01-18 15:22] · скачан: 279 раз
Статус: √ проверено
Размер: 1.44 GB
Как cкачать? Как скачать Пристанище страха через торрент | qTorrent

% Раздел Тема Автор DL S | L
Фильмы (WEB-DL 720p, 1080p) [ 3.38 GB ] Пристанище страха / Realms [2018 WEB-DL 1080p] bober100 Скачать
2 | 0

28-11-2019 20:33  

Отключить всю рекламу на сайте

    Дорогой пользователь! Огромная просьба, поблагодарите релизера, оцените раздачу и оставьте свои комментарий, если Вы скачали Пристанище страха через торрент бесплатно! Внесите свою лепту в развитие PiratBit!
    Комментировать посты могут только пользователи прошедшие не сложную регистрацию
    Показать сообщения:    

    Пристанище страха через торрент
    Скачать бесплатно Пристанище страха
    Пристанище страха скачать торрент
    Пристанище страха смотреть онлайн
    Cкачать фильм Пристанище страха бесплатно
    Пристанище страха скачать торрент в хорошем качестве
    Пристанище страха смотреть онлайн бесплатно в хорошем качестве


    Вы не можете начинать темы
    Вы не можете отвечать на сообщения
    Вы не можете редактировать свои сообщения
    Вы не можете удалять свои сообщения
    Вы не можете голосовать в опросах
    Вы не можете прикреплять файлы к сообщениям
    Вы можете скачивать файлы