новый адрес
Ссылка на приватное зеркало всего за 1$. Внимание количество ограничено!!!

iTunes

1+1

iTunes

мы

WEB-DL

1

iTunes

Чернобыль

iTunes

Ральф против интернета

Лицензия

ПШазам

Лицензия

Оно 2

Лицензия

30
pack

Вам бонус

ВАЖНО

!!Акция!!

Alien_RageХит недели

RePack

Resident Evil 21

ИГРА 18+

pack

RePack

jed

!!Акция!!

Alien_Rage

RePack

fifa19

RePack

Assassins Creed: Odyssey

RePack

NEED FOR SPEED™ PAYBACK

3 сезон

9 сезон

Бесстыжие 9 сезон

Все сериалы

все сериалы на PB.wtf

RePack

FAR CRY 5
Ребята, катастрофически не хватает 1900р. для оплаты серверов за Октябрь (всвязи с блокировками трафик упал в 3 раза), 1-2р., выручайте.
  

Явление / L'apparition (Ксавье Джанноли) [2018, драма, BDRip-AVC] MVO [HDRezka Studio] pb.wtf

Явление через торрент pb.wtf

Размер: 2.92 GB | Добавлен: 10 мес. назад | Торрент скачан:136 раз
Скачать  

18-01-2019 15:37 Явление Скачать торрент  

Явление / L'apparition Год выпуска: 2018
Страна: Франция, Бельгия, Иордания
Жанр: драма
Продолжительность: 02:17:57
Перевод: Профессиональный (многоголосый) | HDRezka Studio
Субтитры: Английские (полные)

Режиссер: Ксавье Джанноли

rating

В ролях:

Анатоль Таубман, Венсан Линдон, Патрик д’Асумсао, Жоффруа де ла Тай, Аврора Брутена, Аксель Симон, Сандрин Ферраро, Галатеа Беллуджи

Описание:

Жак – уважаемый репортер, работающий в крупной французской газете. Недавно он вернулся из командировки на Ближнем Востоке, которая закончилась трагедией: в результате взрыва погиб его близкий друг и коллега, а сам Жак теперь страдает от болезненного звона в ушах. Однажды он получает загадочный звонок из Ватикана и узнает, что маленький французский городок стал местом предполагаемого явления Девы Марии, свидетельницей которого стала молодая девушка по имени Анна. С тех пор туда съезжаются тысячи верующих, чтобы своими глазами увидеть чудо. Жак, как беспристрастный профессионал, решает присоединиться к расследованию, чтобы выяснить подробности этой истории.

Качество: BDRip-AVC
Формат: MKV

Видео: 1024x576 (16:9), 25,000 fps, x264 ~2 396 Кбит/сек, 0.162 bit/pixel
Аудио#1: 48 kHz, AC3 Dolby Digital, 2 (L,R) ch, ~192.00 kbps avg | RUS (HDRezka Studio)
Аудио#2: 48 kHz, AC3 Dolby Digital, 3/2 (L,C,R,l,r) + LFE ch, ~448.00 kbps avg | FRE
скриншот  скриншот  скриншот  скриншот  скриншот  

Общее
Уникальный идентификатор : 37199517221965830921937138421896847857 (0x1BFC5DCD45A6992F7A3D82C8650C21F1)
Полное имя : F:\OlLanDGroup\L.Apparition.2018.BDRip(AVC).OlLanDGroup.mkv
Формат : Matroska
Версия формата : Version 4 / Version 2
Размер файла : 2,92 Гбайт
Продолжительность : 2 ч. 17 м.
Общий поток : 3031 Кбит/сек
Название фильма : L.Apparition.2018 #TorpedoUK#
Дата кодирования : UTC 2019-01-18 13:52:20
Программа кодирования : mkvmerge v29.0.0 ('Like It Or Not') 64-bit
Библиотека кодирования : libebml v1.3.6 + libmatroska v1.4.9

Видео
Идентификатор : 1
Формат : AVC
Формат/Информация : Advanced Video Codec
Профиль формата : High@L4.1
Параметр CABAC формата : Да
Параметр ReFrames формата : 10 кадров
Идентификатор кодека : V_MPEG4/ISO/AVC
Продолжительность : 2 ч. 17 м.
Битрейт : 2396 Кбит/сек
Ширина : 1024 пикселя
Высота : 576 пикселей
Соотношение сторон : 16:9
Режим частоты кадров : Постоянный
Частота кадров : 25,000 кадров/сек
Цветовое пространство : YUV
Субдискретизация насыщенности : 4:2:0
Битовая глубина : 8 бит
Тип развёртки : Прогрессивная
Бит/(Пиксели*Кадры) : 0.162
Размер потока : 2,30 Гбайт (79%)
Библиотека кодирования : x264 core 146 r2538 121396c
Настройки программы : cabac=1 / ref=10 / deblock=1:-3:-2 / analyse=0x3:0x113 / me=umh / subme=11 / psy=1 / psy_rd=0.96:0.06 / mixed_ref=1 / me_range=48 / chroma_me=1 / trellis=2 / 8x8dct=1 / cqm=0 / deadzone=21,11 / fast_pskip=1 / chroma_qp_offset=-3 / threads=6 / lookahead_threads=1 / sliced_threads=0 / nr=0 / decimate=1 / interlaced=0 / bluray_compat=0 / constrained_intra=0 / bframes=11 / b_pyramid=2 / b_adapt=2 / b_bias=0 / direct=3 / weightb=1 / open_gop=0 / weightp=2 / keyint=250 / keyint_min=25 / scenecut=40 / intra_refresh=0 / rc_lookahead=40 / rc=2pass / mbtree=0 / bitrate=2396 / ratetol=1.0 / qcomp=0.60 / qpmin=0 / qpmax=69 / qpstep=4 / cplxblur=20.0 / qblur=0.5 / vbv_maxrate=50000 / vbv_bufsize=62500 / nal_hrd=none / filler=0 / ip_ratio=1.40 / pb_ratio=1.30 / aq=1:1.00
Язык : English
Default : Да
Forced : Нет

Аудио #1
Идентификатор : 2
Формат : AC-3
Формат/Информация : Audio Coding 3
Расширение режима : CM (complete main)
Параметр Endianness формата : Big
Идентификатор кодека : A_AC3
Продолжительность : 2 ч. 17 м.
Вид битрейта : Постоянный
Битрейт : 192 Кбит/сек
Каналы : 2 канала
Расположение каналов : Front: L R
Частота : 48,0 КГц
Частота кадров : 31,250 кадров/сек (1536 spf)
Битовая глубина : 16 бит
Метод сжатия : С потерями
Размер потока : 189 Мбайт (6%)
Заголовок : MVO [HDRezka Studio]
Язык : Russian
Default : Да
Forced : Нет

Аудио #2
Идентификатор : 3
Формат : AC-3
Формат/Информация : Audio Coding 3
Расширение режима : CM (complete main)
Параметр Endianness формата : Big
Идентификатор кодека : A_AC3
Продолжительность : 2 ч. 17 м.
Вид битрейта : Постоянный
Битрейт : 448 Кбит/сек
Каналы : 6 каналов
Расположение каналов : Front: L C R, Side: L R, LFE
Частота : 48,0 КГц
Частота кадров : 31,250 кадров/сек (1536 spf)
Битовая глубина : 16 бит
Метод сжатия : С потерями
Размер потока : 442 Мбайт (15%)
Заголовок : [Original]
Язык : English
Default : Нет
Forced : Нет

Текст
Идентификатор : 4
Формат : UTF-8
Идентификатор кодека : S_TEXT/UTF8
Идентификатор кодека/Информация : UTF-8 Plain Text
Продолжительность : 2 ч. 17 м.
Битрейт : 42 бит/сек
Count of elements : 1416
Размер потока : 42,6 Кбайт (0%)
Заголовок : Full
Язык : English
Default : Нет
Forced : Нет

Меню
00:00:00.000 : en:00:00:00.000
00:07:57.920 : en:00:07:57.920
00:20:05.520 : en:00:20:05.520
00:33:57.920 : en:00:33:57.920
00:46:47.400 : en:00:46:47.400
01:00:34.280 : en:01:00:34.280
01:12:14.960 : en:01:12:14.960
01:29:24.440 : en:01:29:24.440
01:40:46.400 : en:01:40:46.400
01:54:07.560 : en:01:54:07.560
02:04:14.560 : en:02:04:14.560
02:13:32.800 : en:02:13:32.800

pb.wtf



Скачать Явление через торрент https://i109.fastpic.ru/big/2019/0118/bc/31f89492656979d87f3ad97cb2a45fbc.jpg Скачать фильм Явление через торрент бесплантно в хорошем качестве Описание: Жак – уважаемый репортер, работающий в крупной французской газете. Недавно он вернулся из командировки на Ближнем Востоке, ... 10 10 5
Торрент: Зарегистрирован [2019-01-18 15:37] · скачан: 136 раз
Статус: T временная
Размер: 2.92 GB
Как cкачать? Как скачать Явление через торрент | qTorrent

28-11-2019 20:33  

Отключить всю рекламу на сайте

    Дорогой пользователь! Огромная просьба, поблагодарите релизера, оцените раздачу и оставьте свои комментарий, если Вы скачали Явление через торрент бесплатно! Внесите свою лепту в развитие PiratBit!
    Комментировать посты могут только пользователи прошедшие не сложную регистрацию
    Показать сообщения:    

    Явление через торрент
    Скачать бесплатно Явление
    Явление скачать торрент
    Явление смотреть онлайн
    Cкачать фильм Явление бесплатно
    Явление скачать торрент в хорошем качестве
    Явление смотреть онлайн бесплатно в хорошем качестве


    Вы не можете начинать темы
    Вы не можете отвечать на сообщения
    Вы не можете редактировать свои сообщения
    Вы не можете удалять свои сообщения
    Вы не можете голосовать в опросах
    Вы не можете прикреплять файлы к сообщениям
    Вы можете скачивать файлы