Ссылка на приватное зеркало нашего сайта всего за 1$. Внимание количество ограничено!!!

2 сезон

iTunes

1 сезон

1

2 сезон

2 сезон

iTunes

1 сезон

RePack

30

Ultimate

ВАЖНО

ИГРА 18+

pack

RePack

MK11
pack

Забери бонус

RePack

jed

!!Акция!!

Alien_Rage

RePack

fifa19

RePack

Assassins Creed: Odyssey

RePack

NEED FOR SPEED™ PAYBACK

4 сезон

9 сезон

Бесстыжие 9 сезон

Все сериалы

все сериалы на PB.wtf

RePack

FAR CRY 5
  

Новичок / Новобранец / The Rookie / Сезон: 1 / Серии: 1-20 из 20 (Грег Биман, Адам Дэвидсон, Тоа Фрейзер) [2018, драма, криминал, WEB-DL 1080p] MVO [Lostfilm] pb.wtf

Новичок через торрент pb.wtf

Раздают: 1 [ 0 KB/s ]
Размер: 52.69 GB | Добавлен: 1 год 7 мес. назад | Торрент скачан:29 раз
Скачать  

18-01-2019 19:05 Новичок Скачать торрент  

Новичок / Новобранец / The Rookie Год выпуска: 2018
Страна: США
Жанр: драма, криминал
Продолжительность: 01:00:00
Перевод: Профессиональный (многоголосый закадровый) Lostfilm
Субтитры: Русские (Forced), Английские (SDH), Английские

Режиссёр: Грег Биман, Адам Дэвидсон, Тоа Фрейзер

В ролях:

Нэйтан Филлион, Титус Макин мл., Алисса Диас, Эрик Винтер, Мелисса О’Нил, Ричард Т® Джонс, Мерседес Масон, Эфтон Уильямсон, Марсей Монро, Дэвид ДеСантос

Описание:

Звезда "Светлячка" и любимец публики Нэйтан Филлион возвращается на эфирное телевидение в потенциально триумфальном образе 40-летнего новичка Департамента полиции Лос-Анджелеса. Создатель криминального процедурала "Новобранец" Алекси Хоули писал главного героя специально под актера, с которым они сработались и подружились еще на съемках "Касла". Более того, новый сериал и по духу схож с восьмисезонным полицейским шоу - фигурой харизматичного протагониста и нестандартным взглядом на работу стражей закона (в "Касле" - от лица писателя, здесь - через призму немолодого мужчины, решившего начать все с нуля). Главная идея шоу: если у тебя еще есть порох в пороховницах, негоже прозябать на ненавистной работе и изо дня в день винить окружающих в своих бедах. Следуй за своей мечтой, даже если никто в нее не верит. Большая заслуга Алекси Хоули и Нэйтана Филлиона в том, что эту прописную истину они подают под фирменным комедийным соусом, помня, что главная функция телевидения - развлекать зрителей, а не поучать их.

Сюжет: Кардинально изменить свою жизнь не так-то просто, особенно если ты среднестатистический мужчина 40 лет, выросший в маленьком городке и никогда не хватавший звезд с неба. Джон Нолан (Нэйтан Филлион) таким себя и считал, пока не оказался в банке в момент ограбления. Попытавшись затеять конструктивный диалог с вооруженным бандитом, он, сам того не планируя, выставил себя настоящим героем в глазах миловидной дамочки и внезапно понял - вот что значит настоящая жизнь! Быть героем, защитником, спасителем или еще лучше - всем сразу. Нолан поступил на службу в полицию Лос-Анджелеса, где стал самым старым новичком из всех прибывших. Среди коллег он моментально превратился в объект насмешек со стикером "пни меня" на спине, а для начальника оказался источником проблем и бельмом на глазу. Напарница Нолана и вовсе боится выходить с ним на задание, переживая, что из-за отсутствия опыта Джон либо погибнет сам, либо подставит под пули ее. И лишь пара человек во всем департаменте задумываются о том, что богатый жизненный опыт, житейская мудрость новичка, его самоотверженная работа над собой и несгибаемая целеустремленность в конечном итоге помогут ему стать хорошим копом. Сможет ли Джон Нолан доказать коллегам и начальству, что служба в полиции - его истинное призвание, или постоянные насмешки и череда неудач все же отправят его на свалку?..



Качество: WEB-DL 1080p (AMAZON)
Контейнер: MKV

Видео: H.264/AVC, 1920x1080p (1.78:1), 23.976 fps, ~7024 kbps, ~0.141 bit/pixel
Аудио №1: Русский E-AC3/DD+ 5.1, 48 kHz, 640 kbps
Аудио №2: Английский E-AC3/DD+ 5.1, 48 kHz, 640 kbps


Реклама: отсутствует

Работа со звуком itunestv@eniahd
01. Pilot (2018-10-16) / Пилот (23.10.2018 19:21:40)
02. Crash Course (2018-10-23) / Ударный курс (25.10.2018 19:29:43)
03. The Good, the Bad and the Ugly (2018-10-30) / Хороший, плохой, злой (01.11.2018 20:57:53)
04. The Switch (2018-11-13) / Перемены (15.11.2018 20:19:02)
05. The Roundup (2018-11-20) / Облава (22.11.2018 15:27:24)
06. The Hawke (2018-11-27) / Хоук (29.11.2018 16:18:33)
07. The Ride Along (2018-12-04) / Пассажир (06.12.2018 21:25:58)
08. Time of Death (2018-12-11) / Время смерти (13.12.2018 18:00:12)
09. Standoff (2019-01-08) / Перестрелка (10.01.2019 18:51:51)
10. Flesh and Blood (2019-01-15) / Плоть и кровь (17.01.2019 19:36:47)
11. Redwood (2019-01-22)
General
Unique ID                                : 283410783991422849673485368629634565131 (0xD536EE79BDEEF662FD448B600F00840B)
Complete name                            : The.Rookie.S01E01.Pilot.1080p.AMZN.WEB-DL.H.264.RUS.LF.DDP5.1-EniaHD.mkv
Format                                   : Matroska
Format version                           : Version 4 / Version 2
File size                                : 2.50 GiB
Duration                                 : 43 min 1 s
Overall bit rate                         : 8 307 kb/s
Movie name                               : The Rookie, Season 1 / Pilot
Track name/Position                      : 1
Track name/Total                         : 20
Description                              : Starting over isn't easy, especially for small-town guy John Nolan who, after a life-altering incident, is pursuing his dream of being a police officer.
Released date                            : UTC 2018-10-17 02:00:00
Writing application                      : mkvmerge v30.1.0 ('Forever And More') 64-bit
Writing library                          : libebml v1.3.6 + libmatroska v1.4.9
Copyright                                : aXR1bmVzdHZAZW5pYWhkLmNvbQ==
Cover                                    : Yes
Attachments                              : small_cover.jpg / cover.jpg

Video
ID                                       : 1
Format                                   : AVC
Format/Info                              : Advanced Video Codec
Format profile                           : High@L4
Format settings                          : CABAC / 4 Ref Frames
Format settings, CABAC                   : Yes
Format settings, RefFrames               : 4 frames
Codec ID                                 : V_MPEG4/ISO/AVC
Duration                                 : 43 min 1 s
Bit rate                                 : 7 024 kb/s
Width                                    : 1 920 pixels
Height                                   : 1 080 pixels
Display aspect ratio                     : 16:9
Frame rate mode                          : Constant
Frame rate                               : 23.976 (24000/1001) FPS
Color space                              : YUV
Chroma subsampling                       : 4:2:0
Bit depth                                : 8 bits
Scan type                                : Progressive
Bits/(Pixel*Frame)                       : 0.141
Stream size                              : 2.11 GiB (85%)
Language                                 : English
Default                                  : Yes
Forced                                   : No
Color range                              : Limited
Color primaries                          : BT.709
Transfer characteristics                 : BT.709
Matrix coefficients                      : BT.709

Audio #1
ID                                       : 2
Format                                   : E-AC-3
Format/Info                              : Enhanced Audio Coding 3
Format settings, Endianness              : Big
Codec ID                                 : A_EAC3
Duration                                 : 43 min 1 s
Bit rate mode                            : Constant
Bit rate                                 : 640 kb/s
Channel(s)                               : 6 channels
Channel positions                        : Front: L C R, Side: L R, LFE
Sampling rate                            : 48.0 kHz
Frame rate                               : 187.500 FPS (256 SPF)
Compression mode                         : Lossy
Stream size                              : 197 MiB (8%)
Title                                    : E-AC3 5.1 @ 640 kbps - MVO, Lostfilm
Language                                 : Russian
Service kind                             : Complete Main
Default                                  : Yes
Forced                                   : No
Released date                            : UTC 2018-10-23 19:21:40

Audio #2
ID                                       : 3
Format                                   : E-AC-3
Format/Info                              : Enhanced Audio Coding 3
Format settings, Endianness              : Big
Codec ID                                 : A_EAC3
Duration                                 : 43 min 1 s
Bit rate mode                            : Constant
Bit rate                                 : 640 kb/s
Channel(s)                               : 6 channels
Channel positions                        : Front: L C R, Side: L R, LFE
Sampling rate                            : 48.0 kHz
Frame rate                               : 187.500 FPS (256 SPF)
Compression mode                         : Lossy
Stream size                              : 197 MiB (8%)
Title                                    : E-AC3 5.1 @ 640 kbps - Original
Language                                 : English
Service kind                             : Complete Main
Default                                  : No
Forced                                   : No

Text #1
ID                                       : 4
Format                                   : UTF-8
Codec ID                                 : S_TEXT/UTF8
Codec ID/Info                            : UTF-8 Plain Text
Duration                                 : 49 s 173 ms
Bit rate                                 : 66 b/s
Count of elements                        : 7
Stream size                              : 410 Bytes (0%)
Title                                    : Forced
Language                                 : Russian
Default                                  : Yes
Forced                                   : Yes

Text #2
ID                                       : 5
Format                                   : UTF-8
Codec ID                                 : S_TEXT/UTF8
Codec ID/Info                            : UTF-8 Plain Text
Duration                                 : 42 min 50 s
Bit rate                                 : 92 b/s
Count of elements                        : 1026
Stream size                              : 29.0 KiB (0%)
Title                                    : SDH
Language                                 : English
Default                                  : No
Forced                                   : No

Text #3
ID                                       : 6
Format                                   : UTF-8
Codec ID                                 : S_TEXT/UTF8
Codec ID/Info                            : UTF-8 Plain Text
Duration                                 : 42 min 50 s
Bit rate                                 : 84 b/s
Count of elements                        : 918
Stream size                              : 26.7 KiB (0%)
Language                                 : English
Default                                  : No
Forced                                   : No
Когда раздача ведётся путём добавления новых серий, при каждом добавлении создётся новый торрент. Чтобы начать докачку новой серии, пользователям необходимо сделать следующее:
(1) остановить скачивание,
(2) удалить старый торрент у себя из клиента (старые серии удалять не надо),
(3) скачать новый торрент и запустить его у себя в клиенте вместо старого, при этом указать клиенту путь в старую папку, куда и должно происходить скачивание новых серий.
Ваш клиент при этом должен произвести хеширование (проверку) старой папки (если не производит сам - помогите ему сделать это), и будет докачивать только те серии, которых у вас ещё нет. Старые серии при этом не удаляются, а продолжают раздаваться!
Eсли вы уже удалили старые серии, то предотвратить повторную закачку старых серий можно, отжав галочку в соответсвующих местах при запуске нового торрента. По возможности, желательно не удалять старые серии как можно дольше, чтобы релизёр не столько продолжал раздавать старые серии, а смог сконцентрироваться на новых.
pb.wtf



Скачать Новичок через торрент http://i92.fastpic.ru/big/2018/1024/df/f828599152ba54ac3e65e18f669f7edf.png Скачать фильм Новичок через торрент бесплантно в хорошем качестве Описание: Звезда "Светлячка" и любимец публики Нэйтан Филлион возвращается на эфирное телевидение в потенциально триумфальном образе ... 10 10 3
Торрент: Зарегистрирован [2019-04-19 08:04] · скачан: 29 раз
Статус: √ проверено
Размер: 52.69 GB
Как cкачать? Как скачать Новичок через торрент | qTorrent

% Раздел Тема Автор DL S | L
Зарубежные сериалы [ 11.95 GB ] Новобранец / Новичок / The Rookie / Сезон: 2 / Серии: 1-20 из 20 [2019 WEB-DLRip] MVO [LostFilm] bober100 Скачать
1 | 0
Зарубежные сериалы [ 44.33 GB ] Новобранец / Новичок / The Rookie / Сезон: 2 / Серии: 1-15 из 20 [2019 WEB-DL 1080p] MVO [TVShows] bober100 Скачать
1 | 0
Зарубежные сериалы [ 23.47 GB ] Новобранец / Новичок / The Rookie / Сезон: 2 / Серии: 1-15 из 20 [2019 WEB-DL 720p] MVO [TVShows] bober100 Скачать
1 | 0
Зарубежные сериалы [ 16.13 GB ] Новобранец / Новичок / The Rookie / Сезон: 2 / Серии: 1-9 из 13 [2019 WEB-DL 720p] 2xMVO [LostFilm HDRezka Studio] bober100 Скачать
1 | 0
Зарубежные сериалы [ 10.55 GB ] Новичок / Новобранец / The Rookie / Сезон: 1 / Серии: 1-20 из 20 [2018 WEB-DLRip] MVO [LostFilm] bober100 Скачать
1 | 0
Зарубежные сериалы [ 5.78 GB ] Новичок / Новобранец / The Rookie / Сезон: 1 / Серии: 1-11 из 13 [2018 WEB-DLRip] MVO [NewStudio] bober100 Скачать
1 | 0
Зарубежные сериалы [ 51.16 GB ] Новичок / Новобранец / The Rookie / Сезон: 1 / Серии: 1-20 из 20 [2018 WEB-DL 1080p] [MVO] killermax2013 Скачать
1 | 0

28-11-2019 20:33  

Отключить всю рекламу на сайте

24-05-2020 18:19 Новичок Скачать торрент  

Как же задолбала эта пропаганди пидристии!
Два черножопых гомика - это перебор!!!pb.wtf



    Дорогой пользователь! Огромная просьба, поблагодарите релизера, оцените раздачу и оставьте свои комментарий, если Вы скачали Новичок через торрент бесплатно! Внесите свою лепту в развитие PiratBit!
    Комментировать посты могут только пользователи прошедшие не сложную регистрацию
    Показать сообщения:    

    Новичок через торрент
    Скачать бесплатно Новичок
    Новичок скачать торрент
    Новичок смотреть онлайн
    Cкачать фильм Новичок бесплатно
    Новичок скачать торрент в хорошем качестве
    Новичок смотреть онлайн бесплатно в хорошем качестве


    Вы не можете начинать темы
    Вы не можете отвечать на сообщения
    Вы не можете редактировать свои сообщения
    Вы не можете удалять свои сообщения
    Вы не можете голосовать в опросах
    Вы не можете прикреплять файлы к сообщениям
    Вы можете скачивать файлы