Ссылка на приватное зеркало нашего сайта всего за 1$. Внимание количество ограничено!!!

2 сезон

iTunes

1 сезон

1

2 сезон

2 сезон

iTunes

1 сезон

RePack

30

Ultimate

ВАЖНО

ИГРА 18+

pack

RePack

MK11
pack

Забери бонус

RePack

jed

!!Акция!!

Alien_Rage

RePack

fifa19

RePack

Assassins Creed: Odyssey

RePack

NEED FOR SPEED™ PAYBACK

4 сезон

9 сезон

Бесстыжие 9 сезон

Все сериалы

все сериалы на PB.wtf

RePack

FAR CRY 5
  

Новичок / Новобранец / The Rookie / Сезон: 1 / Серии: 1-11 из 13 (Грег Биман, Адам Дэвидсон, Тоа Фрейзер) [2018, Драма, криминал, WEB-DLRip] MVO [NewStudio] pb.wtf

Новичок через торрент pb.wtf

Размер: 5.78 GB | Добавлен: 1 год 8 мес. назад | Торрент скачан:3 раза
Скачать  

18-01-2019 19:07 Новичок Скачать торрент  

Новичок | Новобранец | The Rookie Год выпуска: 2018
Страна: США
Жанр: Драма, криминал
Продолжительность: ~ 00:43:00
Перевод: Профессиональный (многоголосый закадровый) | NewStudio
Субтитры: Русские (Forced, Full), Английские

Режиссёр: Грег Биман, Адам Дэвидсон, Тоа Фрейзер

В ролях:

Нэйтан Филлион, Алисса Диас, Титус Макин мл., Эрик Винтер, Ричард Т. Джонс, Мелисса О’Нил, Мерседес Масон, Эфтон Уильямсон, Марсей Монро, Дэвид ДеСантос

Описание:

Начинать с чистого листа всегда нелегко, особенно для уроженца маленького городка Джона Нолана, который после инцидента, перевернувшего его жизнь, решил воплотить в жизнь давнюю мечту и присоединиться к полиции Лос-Анджелеса. Возрастного новичка встречают с понятным скептицизмом, однако жизненный опыт, упорство и чувство юмора дают Джону преимущество.




Качество: WEB-DLRip
Формат: AVI

Видео: XviD, 720x400, 23,976 кадров/сек, ~1500 Кбит/сек
Аудио Rus: MP3, 48 kHz, 2 ch, 128 Кбит/сек | NewStudio
Аудио Eng: MP3, 48 kHz, 2 ch, 128 Кбит/сек
• Очистка от рекламы: [url=profile.php?mode=viewprofile&u=43635623]Wanterlude[/url]
• Forced субтитры от NewStudio, Full от PhysKids
01. Pilot / Пилот
02. Crash Course / Ударный курс
03. The Good, the Bad and the Ugly / Хороший, плохой, злой
04. The Switch / Перемены
05. The Roundup / Облава
06. The Hawke / Хоук
07. The Ride Along / Пассажир
08. Time of Death / Время смерти
09. Standoff / Перестрелка
10. Flesh and Blood / Плоть и кровь
Общее
Полное имя : E:\The Rookie (Season 1) WEB-DLRip\The.Rookie.S01E01.WEB-DLRip.[Wentworth_Miller].avi
Формат : AVI
Формат/Информация : Audio Video Interleave
Размер файла : 545 Мбайт
Продолжительность : 43 м. 1 с.
Общий поток : 1770 Кбит/сек
Программа кодирования : VirtualDubMod 1.5.10.2 (build 2540/release)
Библиотека кодирования : VirtualDubMod build 2540/release

Видео
Идентификатор : 0
Формат : MPEG-4 Visual
Профиль формата : Advanced Simple@L5
Настройки формата : BVOP1
Параметр BVOP формата : 1
Параметр QPel формата : Нет
Параметр GMC формата : Без точки перехода
Параметр матрицы формата : Default (MPEG)
Идентификатор кодека : XVID
Идентификатор кодека/Подсказка : XviD
Продолжительность : 43 м. 1 с.
Битрейт : 1500 Кбит/сек
Ширина : 720 пикселей
Высота : 400 пикселей
Соотношение сторон : 16:9
Частота кадров : 23,976 (24000/1001) кадра/сек
Цветовое пространство : YUV
Субдискретизация насыщенности : 4:2:0
Битовая глубина : 8 бит
Тип развёртки : Прогрессивная
Метод сжатия : С потерями
Бит/(Пиксели*Кадры) : 0.217
Размер потока : 462 Мбайт (85%)
Библиотека кодирования : XviD 61

Аудио #1
Идентификатор : 1
Формат : MPEG Audio
Версия формата : Version 1
Профиль формата : Layer 3
Идентификатор кодека : 55
Идентификатор кодека/Подсказка : MP3
Продолжительность : 43 м. 1 с.
Вид битрейта : Постоянный
Битрейт : 128 Кбит/сек
Каналы : 2 канала
Частота : 48,0 КГц
Частота кадров : 41,667 кадра/сек (1152 SPF)
Метод сжатия : С потерями
Размер потока : 39,4 Мбайт (7%)
Выравнивание : Соединение по промежуткам
Продолжительность промежутка : 42 мс. (1,00 видеокадр)
Время предзагрузки промежутка : 504 мс.
Библиотека кодирования : LAME3.98r
Настройки программы : -m s -V 4 -q 2 -lowpass 17 -b 128

Аудио #2
Идентификатор : 2
Формат : MPEG Audio
Версия формата : Version 1
Профиль формата : Layer 3
Настройки формата : Joint stereo / MS Stereo
Идентификатор кодека : 55
Идентификатор кодека/Подсказка : MP3
Продолжительность : 43 м. 1 с.
Вид битрейта : Постоянный
Битрейт : 128 Кбит/сек
Каналы : 2 канала
Частота : 48,0 КГц
Метод сжатия : С потерями
Размер потока : 39,4 Мбайт (7%)
Выравнивание : Соединение по промежуткам
Продолжительность промежутка : 42 мс. (1,00 видеокадр)
Время предзагрузки промежутка : 504 мс.
Библиотека кодирования : LAME3.97
скриншот  скриншот  скриншот  скриншот  
Внимание! Раздача ведётся путём добавления новых серий; при каждом добавлении создаётся новый торрент. Чтобы начать докачку новой серии, пользователям необходимо сделать следующее:
(1) остановить скачивание,
(2) удалить старый торрент у себя из клиента (старые серии удалять не надо),
(3) скачать новый торрент и запустить его у себя в клиенте вместо старого, при этом указать клиенту путь в старую папку куда и должно происходить скачивание новых серий.

Ваш клиент при этом должен произвести хеширование (проверку) старой папки (если не производит сам - помогите ему сделать это), и будет докачивать только те серии которых у вас ещё нет. Старые серии при этом не удаляются, а продолжают раздаваться!

Eсли вы уже удалили старые серии, то предотвратить повторную закачку старых серий можно, отжав галочку в соответствующих местах при запуске нового торрента. По возможности, желательно не удалять старые серии как можно дольше чтобы релизёр не столько продолжал раздавать старые серии, а смог сконцентрироваться на новых.
pb.wtf



Скачать Новичок через торрент http://i94.fastpic.ru/big/2018/1023/8c/0ff54c7c7a0fe3420d70ff2632804f8c.jpg Скачать фильм Новичок через торрент бесплантно в хорошем качестве Описание: Начинать с чистого листа всегда нелегко, особенно для уроженца маленького городка Джона Нолана, который после инцидента, ... 10 10 2
Торрент: Зарегистрирован [2019-03-22 18:27] · скачан: 3 раз
Статус: √ проверено
Размер: 5.78 GB
Как cкачать? Как скачать Новичок через торрент | qTorrent

28-11-2019 20:33  

Отключить всю рекламу на сайте

    Дорогой пользователь! Огромная просьба, поблагодарите релизера, оцените раздачу и оставьте свои комментарий, если Вы скачали Новичок через торрент бесплатно! Внесите свою лепту в развитие PiratBit!
    Комментировать посты могут только пользователи прошедшие не сложную регистрацию
    Показать сообщения:    

    Новичок через торрент
    Скачать бесплатно Новичок
    Новичок скачать торрент
    Новичок смотреть онлайн
    Cкачать фильм Новичок бесплатно
    Новичок скачать торрент в хорошем качестве
    Новичок смотреть онлайн бесплатно в хорошем качестве


    Вы не можете начинать темы
    Вы не можете отвечать на сообщения
    Вы не можете редактировать свои сообщения
    Вы не можете удалять свои сообщения
    Вы не можете голосовать в опросах
    Вы не можете прикреплять файлы к сообщениям
    Вы можете скачивать файлы