Ссылка на приватное зеркало нашего сайта всего за 1$. Внимание количество ограничено!!!

2 сезон

iTunes

1 сезон

1

2 сезон

2 сезон

iTunes

1 сезон

RePack

30

Ultimate

ВАЖНО

ИГРА 18+

pack

RePack

MK11
pack

Забери бонус

RePack

jed

!!Акция!!

Alien_Rage

RePack

fifa19

RePack

Assassins Creed: Odyssey

RePack

NEED FOR SPEED™ PAYBACK

4 сезон

9 сезон

Бесстыжие 9 сезон

Все сериалы

все сериалы на PB.wtf

RePack

FAR CRY 5
  

Цветение / Bloom / Сезон: 1 / Серии 1-6 из 6 (Джон Кёрран, Мат Кинг) [2019, драма, детектив, фантастика, WEB-DL 1080p] [MVO] (AlexFilm) pb.wtf

Цветение через торрент pb.wtf

Размер: 21.41 GB | Добавлен: 1 год 10 мес. назад | Торрент скачан:22 раза
Скачать  

18-01-2019 20:27 Цветение Скачать торрент  

Цветение / Bloom
Информация о сериале

Год выпуска: 2019
Жанр: драма, детектив, фантастика
Страна: Австралия
Продолжительность: 1 x ~ 00:53:00
Озвучание: Профессиональное (многоголосое, закадровое) (AlexFilm)

Режиссер: Джон Кёрран, Мат Кинг

В ролях: Брайан Браун, Энн Беннетт, Райан Корр, Дэниэл Хеншэлл, Род Муллинар, Терри Норрис, Никки Шилз, Фиби Тонкин

О фильме: Действие сериала разворачивается в небольшом австралийском городке. Прошел год с того дня, как страшное наводнение унесло жизни пяти жителей, как вдруг здесь появился новый, таинственный цветок, дарящий людям молодость. Однако, в погоне за ним, придется провести серьезную переоценку ценностей и понять, что же на самом деле главное.

rating

Рнлиз скриншот  

Перевод: Наталья Земина
Монтаж и сведение звука: Михаил Шорыгин
Роли озвучивали:
Татьяна Манетина
Екатерина Муравицкая
Кирилл Патрино
Алексей Гнеушев
Дмитрий Лунев
Михаил Федосеев


Качество: WEB-DL 1080p
Формат: MKV
Видео: 1920x960, 25.000 fps, MPEG-4 AVC ~8000 kbps avg, 0.180 bit/pixel
Аудио Rus: 48 kHz, AC3 Dolby Digital, 3/2 (L,C,R,l,r) + LFE ch, ~384.00 kbps
Аудио Eng: 48 kHz, AC3 Dolby Digital, 3/2 (L,C,R,l,r) + LFE ch, ~384.00 kbps
скриншот  скриншот  скриншот  
General
Unique ID : 188697389672709054319880304410816930556 (0x8DF5CB9A14B4D57B787B2ABA454FE2FC)
Complete name : E:\Bloom 2019 - Season 1 (AlexFilm) WEB-DL 1080p\Bloom.2019.s01e01.WEB-DL.1080p.Rus.Eng.AlexFilm.mkv
Format : Matroska
Format version : Version 4 / Version 2
File size : 3.29 GiB
Duration : 52 min 6 s
Overall bit rate : 9 045 kb/s
Encoded date : UTC 2019-01-18 16:14:23
Writing application : mkvmerge v29.0.0 ('Like It Or Not') 64-bit
Writing library : libebml v1.3.6 + libmatroska v1.4.9

Video
ID : 1
Format : AVC
Format/Info : Advanced Video Codec
Format profile : High@L4.1
Format settings : CABAC / 4 Ref Frames
Format settings, CABAC : Yes
Format settings, RefFrames : 4 frames
Codec ID : V_MPEG4/ISO/AVC
Duration : 52 min 6 s
Bit rate : 8 097 kb/s
Width : 1 920 pixels
Height : 960 pixels
Display aspect ratio : 2.000
Frame rate mode : Constant
Frame rate : 25.000 FPS
Color space : YUV
Chroma subsampling : 4:2:0
Bit depth : 8 bits
Scan type : Progressive
Bits/(Pixel*Frame) : 0.176
Stream size : 2.95 GiB (90%)
Writing library : x264 core 157 r2935+3 (master: 545de2f / tmod: 0f48dd4) [X86_64]
Encoding settings : cabac=1 / ref=4 / deblock=1:-3:-3 / analyse=0x3:0x133 / me=umh / subme=11 / psy=1 / psy_rd=1.05:0.15 / mixed_ref=1 / me_range=48 / chroma_me=1 / trellis=2 / 8x8dct=1 / cqm=0 / deadzone=6,6 / fast_pskip=0 / chroma_qp_offset=-3 / threads=30 / lookahead_threads=7 / sliced_threads=0 / nr=0 / decimate=0 / interlaced=0 / bluray_compat=0 / constrained_intra=0 / bframes=10 / b_pyramid=2 / b_adapt=2 / b_bias=0 / direct=3 / weightb=1 / open_gop=0 / weightp=2 / keyint=250 / keyint_min=25 / scenecut=40 / intra_refresh=0 / rc_lookahead=60 / rc=crf / mbtree=0 / crf=17.0 / qcomp=0.70 / qpmin=0 / qpmax=69 / qpstep=4 / vbv_maxrate=62500 / vbv_bufsize=78125 / crf_max=0.0 / nal_hrd=none / filler=0 / ip_ratio=1.25 / pb_ratio=1.20 / aq=3:0.70
Language : English
Default : Yes
Forced : No

Audio #1
ID : 2
Format : AC-3
Format/Info : Audio Coding 3
Format settings, Endianness : Big
Codec ID : A_AC3
Duration : 52 min 6 s
Bit rate mode : Constant
Bit rate : 384 kb/s
Channel(s) : 6 channels
Channel positions : Front: L C R, Side: L R, LFE
Sampling rate : 48.0 kHz
Frame rate : 31.250 FPS (1536 SPF)
Bit depth : 16 bits
Compression mode : Lossy
Stream size : 143 MiB (4%)
Title : DD 5.1 AlexFilm
Language : Russian
Service kind : Complete Main
Default : Yes
Forced : No

Audio #2
ID : 3
Format : AC-3
Format/Info : Audio Coding 3
Format settings, Endianness : Big
Codec ID : A_AC3
Duration : 52 min 6 s
Bit rate mode : Constant
Bit rate : 384 kb/s
Channel(s) : 6 channels
Channel positions : Front: L C R, Side: L R, LFE
Sampling rate : 48.0 kHz
Frame rate : 31.250 FPS (1536 SPF)
Bit depth : 16 bits
Compression mode : Lossy
Stream size : 143 MiB (4%)
Title : Eng
Language : English
Service kind : Complete Main
Default : No
Forced : No
Внимание! Раздача ведётся путём добавления новых серий; при каждом добавлении создаётся новый торрент. Чтобы начать докачку новой серии, пользователям необходимо сделать следующее:
(1) остановить скачивание,
(2) удалить старый торрент у себя из клиента (старые серии удалять не надо),
(3) скачать новый торрент и запустить его у себя в клиенте вместо старого, при этом указать клиенту путь в старую папку куда и должно происходить скачивание новых серий.
Ваш клиент при этом должен произвести хеширование (проверку) старой папки (если не производит сам - помогите ему сделать это), и будет докачивать только те серии которых у вас ещё нет. Старые серии при этом не удаляются, а продолжают раздаваться!
Eсли вы уже удалили старые серии, то предотвратить повторную закачку старых серий можно, отжав галочку в соответствующих местах при запуске нового торрента. По возможности, желательно не удалять старые серии как можно дольше чтобы релизёр не столько продолжал раздавать старые серии, а смог сконцентрироваться на новых.
pb.wtf



Скачать Цветение через торрент https://i106.fastpic.ru/big/2019/0102/ba/00f7bbf428199dccbfdc37de54e7f8ba.jpg Скачать фильм Цветение через торрент бесплантно в хорошем качестве О фильме: Действие сериала разворачивается в небольшом австралийском городке. Прошел год с того дня, как страшное наводнение унесло жизни ... 10 10 2
Торрент: Зарегистрирован [2019-02-02 06:41] · скачан: 22 раз
Статус: √ проверено
Размер: 21.41 GB
Как cкачать? Как скачать Цветение через торрент | qTorrent

% Раздел Тема Автор DL S | L
Зарубежные сериалы [ 8.09 GB ] Расцвет / Цветение / Bloom / Сезон: 1 / Серии: 1-6 из 6 [2019 WEB-DL 720p] MVO [AlexFilm] bober100 Скачать
1 | 0
Зарубежные сериалы [ 3.36 GB ] Расцвет / Цветение / Bloom / Сезон: 1 / Серии: 1-6 из 6 [2019 WEB-DLRip] MVO [AlexFilm] bober100 Скачать
1 | 0
Зарубежные сериалы [ 3.22 GB ] Расцвет / Цветение / Bloom / Сезон: 1 / Серии 1- 6 из 6 [2019 WEB-DLRip] [MVO] killermax2013 Скачать
1 | 0
Зарубежные сериалы [ 8.22 GB ] Расцвет / Цветение / Bloom / Сезон: 1 / Серии 1- 6 из 6 [2019 WEB-DL 720p] [MVO] killermax2013 Скачать
1 | 0
Зарубежные сериалы [ 4.8 GB ] Цветение / Bloom / Сезон: 1 / Серии 1- 6 из 6 [2019 WEB-DLRip 720p] [DVO] killermax2013 Скачать
1 | 0

28-11-2019 20:33  

Отключить всю рекламу на сайте

02-02-2019 07:06 Цветение Скачать торрент  

Спасибо pb.wtf



    Дорогой пользователь! Огромная просьба, поблагодарите релизера, оцените раздачу и оставьте свои комментарий, если Вы скачали Цветение через торрент бесплатно! Внесите свою лепту в развитие PiratBit!
    Комментировать посты могут только пользователи прошедшие не сложную регистрацию
    Показать сообщения:    

    Цветение через торрент
    Скачать бесплатно Цветение
    Цветение скачать торрент
    Цветение смотреть онлайн
    Cкачать фильм Цветение бесплатно
    Цветение скачать торрент в хорошем качестве
    Цветение смотреть онлайн бесплатно в хорошем качестве


    Вы не можете начинать темы
    Вы не можете отвечать на сообщения
    Вы не можете редактировать свои сообщения
    Вы не можете удалять свои сообщения
    Вы не можете голосовать в опросах
    Вы не можете прикреплять файлы к сообщениям
    Вы можете скачивать файлы