новый адрес
Ссылка на приватное зеркало всего за 1$. Внимание количество ограничено!!!

iTunes

1+1

iTunes

мы

WEB-DL

1

iTunes

Чернобыль

iTunes

Ральф против интернета

Лицензия

ПШазам

Лицензия

Оно 2

Лицензия

30
pack

Вам бонус

ВАЖНО

!!Акция!!

Alien_RageХит недели

RePack

Resident Evil 21

ИГРА 18+

pack

RePack

jed

!!Акция!!

Alien_Rage

RePack

fifa19

RePack

Assassins Creed: Odyssey

RePack

NEED FOR SPEED™ PAYBACK

3 сезон

9 сезон

Бесстыжие 9 сезон

Все сериалы

все сериалы на PB.wtf

RePack

FAR CRY 5
Ребята, катастрофически не хватает 1900р. для оплаты серверов за Октябрь (всвязи с блокировками трафик упал в 3 раза), 1-2р., выручайте.
  

Слендермен / Slender Man (Сильвен Уайт) [2018, ужасы, триллер, детектив, BDRip-AVC] DUB [Лицензия] pb.wtf

Слендермен через торрент pb.wtf

Размер: 1.81 GB | Добавлен: 10 мес. назад | Торрент скачан:162 раза
Скачать  

19-01-2019 05:43 Слендермен Скачать торрент  

Слендермен / Slender Man
Год выпуска: 2018
Страна: США
Жанр: ужасы, триллер, детектив
Продолжительность: 01:33:11
Перевод: Дублированный | Лицензия
Субтитры: Русские (форс., полные), Английские (полные, SDH)

Режиссер: Сильвен Уайт

rating

В ролях:

Джои Кинг (Wren), Джулия Голден Теллес (Hallie), Жасмин Сабино (Chloe), Анналиса Бассо (Katie), Алекс Фитцалан (Tom), Тейлор Ричардсон (Lizzie), Хавьер Ботет (Slender Man), Джессика Бланк (Hallie's Mother), Майкл Рейли Бурк (Hallie's Dad), Кевин Чэпмен (Mr. Jensen), Мигель Наскрименто (Kyle), Эдди Фратешши (Biology Teacher)
Описание:

Слендермен - это худощавая фигура в похоронном костюме, без лица, без красок и без ясных намерений. Он становится кошмаром множества детей и подростков, которые пытаются укрыться от его преследования, пока однажды не исчезают без следа.

Качество: BDRip-AVC
Формат: MKV

Видео: 1024x428 (2.40:1), 23,976 fps, x264 ~1 884 kbps avg, 0.179 bit/pixel
Аудио#1: 48 kHz, AC3 Dolby Digital, 3/2 (L,C,R,l,r) + LFE ch, ~448.00 kbps avg | RUS (Лицензия) |
Аудио#2: 48 kHz, AC3 Dolby Digital, 3/2 (L,C,R,l,r) + LFE ch, ~448.00 kbps avg | ENG |
скриншот  скриншот  скриншот  

скриншот  скриншот  скриншот  

Общее
Уникальный идентификатор : 166836155456582767896090453652825724419 (0x7D837989DF8848D5E1CD42541AB05603)
Полное имя : F:OlLanDGroupSlender.Man.2018.BDRip(AVC).OlLanDGroup.mkv
Формат : Matroska
Версия формата : Version 4 / Version 2
Размер файла : 1,81 Гбайт
Продолжительность : 1 ч. 33 м.
Общий поток : 2782 Кбит/сек
Название фильма : Slender.Man.2018 #TorpedoUK#
Дата кодирования : UTC 2019-01-19 03:36:57
Программа кодирования : mkvmerge v29.0.0 ('Like It Or Not') 64-bit
Библиотека кодирования : libebml v1.3.6 + libmatroska v1.4.9
Обложка : Yes
Attachments : cover_land.jpg / small_cover.jpg / small_cover_land.jpg / cover.jpg

Видео
Идентификатор : 1
Формат : AVC
Формат/Информация : Advanced Video Codec
Профиль формата : High@L4.1
Параметр CABAC формата : Да
Параметр ReFrames формата : 10 кадров
Идентификатор кодека : V_MPEG4/ISO/AVC
Продолжительность : 1 ч. 33 м.
Битрейт : 1884 Кбит/сек
Ширина : 1024 пикселя
Высота : 428 пикселей
Соотношение сторон : 2,40:1
Режим частоты кадров : Постоянный
Частота кадров : 23,976 (24000/1001) кадра/сек
Цветовое пространство : YUV
Субдискретизация насыщенности : 4:2:0
Битовая глубина : 8 бит
Тип развёртки : Прогрессивная
Бит/(Пиксели*Кадры) : 0.179
Размер потока : 1,23 Гбайт (68%)
Библиотека кодирования : x264 core 146 r2538 121396c
Настройки программы : cabac=1 / ref=10 / deblock=1:-3:-3 / analyse=0x3:0x113 / me=umh / subme=10 / psy=1 / psy_rd=0.99:0.04 / mixed_ref=1 / me_range=48 / chroma_me=1 / trellis=2 / 8x8dct=1 / cqm=0 / deadzone=21,11 / fast_pskip=1 / chroma_qp_offset=-3 / threads=6 / lookahead_threads=1 / sliced_threads=0 / nr=0 / decimate=1 / interlaced=0 / bluray_compat=0 / constrained_intra=0 / bframes=11 / b_pyramid=2 / b_adapt=2 / b_bias=0 / direct=3 / weightb=1 / open_gop=0 / weightp=2 / keyint=240 / keyint_min=23 / scenecut=40 / intra_refresh=0 / rc_lookahead=40 / rc=2pass / mbtree=0 / bitrate=1884 / ratetol=1.0 / qcomp=0.60 / qpmin=0 / qpmax=69 / qpstep=4 / cplxblur=20.0 / qblur=0.5 / vbv_maxrate=50000 / vbv_bufsize=62500 / nal_hrd=none / filler=0 / ip_ratio=1.40 / pb_ratio=1.30 / aq=1:1.00
Язык : English
Default : Да
Forced : Нет

Аудио #1
Идентификатор : 2
Формат : AC-3
Формат/Информация : Audio Coding 3
Расширение режима : CM (complete main)
Параметр Endianness формата : Big
Идентификатор кодека : A_AC3
Продолжительность : 1 ч. 33 м.
Вид битрейта : Постоянный
Битрейт : 448 Кбит/сек
Каналы : 6 каналов
Расположение каналов : Front: L C R, Side: L R, LFE
Частота : 48,0 КГц
Частота кадров : 31,250 кадров/сек (1536 spf)
Битовая глубина : 16 бит
Метод сжатия : С потерями
Размер потока : 299 Мбайт (16%)
Заголовок : DUB [License]
Язык : Russian
Default : Да
Forced : Нет

Аудио #2
Идентификатор : 3
Формат : AC-3
Формат/Информация : Audio Coding 3
Расширение режима : CM (complete main)
Параметр Endianness формата : Big
Идентификатор кодека : A_AC3
Продолжительность : 1 ч. 33 м.
Вид битрейта : Постоянный
Битрейт : 448 Кбит/сек
Каналы : 6 каналов
Расположение каналов : Front: L C R, Side: L R, LFE
Частота : 48,0 КГц
Частота кадров : 31,250 кадров/сек (1536 spf)
Битовая глубина : 16 бит
Метод сжатия : С потерями
Размер потока : 299 Мбайт (16%)
Заголовок : [Original]
Язык : English
Default : Нет
Forced : Нет

Текст #1
Идентификатор : 4
Формат : UTF-8
Идентификатор кодека : S_TEXT/UTF8
Идентификатор кодека/Информация : UTF-8 Plain Text
Продолжительность : 11 м. 2 с.
Битрейт : 0 бит/сек
Count of elements : 2
Размер потока : 43,0 байт (0%)
Заголовок : Forced
Язык : Russian
Default : Да
Forced : Да

Текст #2
Идентификатор : 5
Формат : UTF-8
Идентификатор кодека : S_TEXT/UTF8
Идентификатор кодека/Информация : UTF-8 Plain Text
Продолжительность : 1 ч. 26 м.
Битрейт : 61 бит/сек
Count of elements : 710
Размер потока : 39,0 Кбайт (0%)
Заголовок : Full
Язык : Russian
Default : Нет
Forced : Нет

Текст #3
Идентификатор : 6
Формат : UTF-8
Идентификатор кодека : S_TEXT/UTF8
Идентификатор кодека/Информация : UTF-8 Plain Text
Продолжительность : 1 ч. 26 м.
Битрейт : 32 бит/сек
Count of elements : 639
Размер потока : 20,2 Кбайт (0%)
Заголовок : Full
Язык : English
Default : Нет
Forced : Нет

Текст #4
Идентификатор : 7
Формат : UTF-8
Идентификатор кодека : S_TEXT/UTF8
Идентификатор кодека/Информация : UTF-8 Plain Text
Продолжительность : 1 ч. 26 м.
Битрейт : 37 бит/сек
Count of elements : 818
Размер потока : 23,7 Кбайт (0%)
Заголовок : SDH
Язык : English
Default : Нет
Forced : Нет

Меню
00:00:00.000 : en:Chapter 01
00:04:42.782 : en:Chapter 02
00:12:02.680 : en:Chapter 03
00:15:21.253 : en:Chapter 04
00:22:07.284 : en:Chapter 05
00:28:44.264 : en:Chapter 06
00:32:14.599 : en:Chapter 07
00:40:31.762 : en:Chapter 08
00:45:50.789 : en:Chapter 09
00:52:40.031 : en:Chapter 10
00:55:34.789 : en:Chapter 11
01:00:42.639 : en:Chapter 12
01:05:19.457 : en:Chapter 13
01:08:53.921 : en:Chapter 14
01:15:11.340 : en:Chapter 15
01:21:12.701 : en:Chapter 16

pb.wtf



Скачать Слендермен через торрент http://img10.lostpic.net/2019/01/19/52d496066e605e83d49a77be8388aafc.jpg Скачать фильм Слендермен через торрент бесплантно в хорошем качестве Описание: Слендермен - это худощавая фигура в похоронном костюме, без лица, без красок и без ясных намерений. Он становится кошмаром ... 9.8 10 9
Торрент: Зарегистрирован [2019-01-19 05:43] · скачан: 162 раз
Статус: √ проверено
Размер: 1.81 GB
Как cкачать? Как скачать Слендермен через торрент | qTorrent

% Раздел Тема Автор DL S | L
Ultra HD (UHD: 2K, 4K, 8K) — видео сверхвысокой чёткости [ 11.35 GB ] Слендермен / Slender Man [2018 UHD WEBRip 2160p] [] sheker187 Скачать
1 | 0
Фильмы (Blu-ray, BD-Remux, HDDVD) [ 25.14 GB ] Слендермен / Slender Man [2018 Blu-ray 1080p] DUB [] bober100 Скачать
1 | 0
Фильмы [HD 720p, 1080p] (Хороший звук DUB, MVO) [ 8.56 GB ] Слендермен / Slender Man [2018 BDRip 1080p] DUB [] bober100 Скачать
1 | 0
Фильмы (Blu-ray, BD-Remux, HDDVD) [ 18.65 GB ] Слендермен / Slender Man [2018 BD Remux 1080p] DUB [] bober100 Скачать
1 | 0
Ultra HD (UHD: 2K, 4K, 8K) — видео сверхвысокой чёткости [ 11.31 GB ] Слендермен / Slender Man [2018 UHD WEBRip 2160p] bober100 Скачать
1 | 0
Фильмы 2018 [DVDrip, WEB-DLRip, HDrip] (DUB, MVO) [ 1.45 GB ] Слендермен / Slender Man [2018 BDRip] - [] Twi7ter Скачать
4 | 1
Фильмы [HD 720p, 1080p] (Хороший звук DUB, MVO) [ 3.3 GB ] Слендермен / Slender Man [2018 BDRip 720p] -Lexx- Скачать
2 | 0

28-11-2019 20:33  

Отключить всю рекламу на сайте


    Дорогой пользователь! Огромная просьба, поблагодарите релизера, оцените раздачу и оставьте свои комментарий, если Вы скачали Слендермен через торрент бесплатно! Внесите свою лепту в развитие PiratBit!
    Комментировать посты могут только пользователи прошедшие не сложную регистрацию
    Показать сообщения:    

    Слендермен через торрент
    Скачать бесплатно Слендермен
    Слендермен скачать торрент
    Слендермен смотреть онлайн
    Cкачать фильм Слендермен бесплатно
    Слендермен скачать торрент в хорошем качестве
    Слендермен смотреть онлайн бесплатно в хорошем качестве


    Вы не можете начинать темы
    Вы не можете отвечать на сообщения
    Вы не можете редактировать свои сообщения
    Вы не можете удалять свои сообщения
    Вы не можете голосовать в опросах
    Вы не можете прикреплять файлы к сообщениям
    Вы можете скачивать файлы