Ссылка на приватное зеркало нашего сайта всего за 1$. Внимание количество ограничено!!!

2 сезон

iTunes

iTunes

1

iTunes

iTunes

iTunes

WEBRip

iTunes

30
pack

Новость дня

ВАЖНО

!!Акция!!

Alien_RageХит недели

RePack

Horizon Zero Dawn

ИГРА 18+

pack

RePack

jed

!!Акция!!

Alien_Rage

RePack

fifa19

RePack

Assassins Creed: Odyssey

RePack

NEED FOR SPEED™ PAYBACK

4 сезон

9 сезон

Бесстыжие 9 сезон

Все сериалы

все сериалы на PB.wtf

RePack

FAR CRY 5
  

Дезертиры и пленники / Captive and deserters (Чжэн Чжэй) [2017, военный, WEB-DL 720p] MVO [КОЛОБОК] pb.wtf

Дезертиры и пленники через торрент pb.wtf

Размер: 2.47 GB | Добавлен: 1 год 8 мес. назад | Торрент скачан:26 раз
Скачать  

19-01-2019 06:26 Дезертиры и пленники Скачать торрент  

Дезертиры и пленники / Captive and desertersГод выпуска: 2017
Страна: Китай
Жанр: военный
Продолжительность: 01:15:28
Перевод: Любительский (многоголосый) | КОЛОБОК
Субтитры: отсутствуют

Режиссер: Чжэн Чжэй



В ролях:

Донг Ханг, Ян Пейю

Описание:

Идёт Японо-китайская война. Китайский дезертир поневоле и японский солдат, попавший к нему в плен, стараются быть людьми на фоне обесчеловечивающей войны.

Качество: WEB-DL 720p
Формат: MKV

Видео: h.264, 4 300 Кбит/с, 1280x720
Аудио#1: Русский, (AC3, 2 ch, 384 Кбит/с)

Общее
Уникальный идентификатор : 205380335692464524665633652276562437875 (0x9A82D058769742419A58649D99E326F3)
Полное имя : D:\Captive.and.deserters.2O18.Pk.WEB_DL.72Op.mkv
Формат : Matroska
Версия формата : Version 2
Размер файла : 2,47 Гбайт
Продолжительность : 1 ч. 15 м.
Режим общего битрейта : Переменный
Общий поток : 4686 Кбит/сек
Дата кодирования : UTC 2019-01-18 08:24:52
Программа кодирования : mkvmerge v8.3.0 ('Over the Horizon') 64bit
Библиотека кодирования : libebml v1.3.1 + libmatroska v1.4.2

Видео
Идентификатор : 1
Формат : AVC
Формат/Информация : Advanced Video Codec
Профиль формата : High@L4.1
Параметр CABAC формата : Да
Параметр RefFrames формата : 4 кадра
Идентификатор кодека : V_MPEG4/ISO/AVC
Продолжительность : 1 ч. 15 м.
Вид битрейта : Переменный
Битрейт : 4300 Кбит/сек
Максимальный битрейт : 5000 Кбит/сек
Ширина : 1280 пикселей
Высота : 720 пикселей
Соотношение сторон : 16:9
Режим частоты кадров : Постоянный
Частота кадров : 23,976 (24000/1001) кадра/сек
Стандарт вещания : Component
Цветовое пространство : YUV
Субдискретизация насыщенности : 4:2:0
Битовая глубина : 8 бит
Тип развёртки : Прогрессивная
Бит/(Пиксели*Кадры) : 0.190
Размер потока : 2,22 Гбайт (90%)
Default : Да
Forced : Нет
Цветовой диапазон : Limited
Основные цвета : BT.709
Характеристики трансфера : BT.709
Коэффициенты матрицы : BT.709

Аудио
Идентификатор : 2
Формат : AC-3
Формат/Информация : Audio Coding 3
Расширение режима : CM (complete main)
Параметр Endianness формата : Big
Идентификатор кодека : A_AC3
Продолжительность : 1 ч. 15 м.
Вид битрейта : Постоянный
Битрейт : 384 Кбит/сек
Каналы : 2 канала
Расположение каналов : Front: L R
Частота : 48,0 КГц
Частота кадров : 31,250 кадров/сек (1536 spf)
Метод сжатия : С потерями
Размер потока : 207 Мбайт (8%)
Default : Да
Forced : Нет

pb.wtf



Скачать Дезертиры и пленники через торрент https://imgrutor.com/img/2019-01/18/3706738038476934530201745.jpg Скачать фильм Дезертиры и пленники через торрент бесплантно в хорошем качестве Описание: Идёт Японо-китайская война. ский дезертир поневоле и японский солдат, попавший к нему в плен, стараются быть людьми на фоне ... 10 10 3
Торрент: Зарегистрирован [2019-01-19 06:26] · скачан: 26 раз
Статус: T временная
Размер: 2.47 GB
Как cкачать? Как скачать Дезертиры и пленники через торрент | qTorrent

% Раздел Тема Автор DL S | L
T Фильмы (мультфильмы) cо спонсором показа (Новинки AVI/MKV) [ 1.37 GB ] Дезертиры и пленники / Captive and deserters [2017 военный WEB-DLRip] MVO [КОЛОБОК] bober100 Скачать
1 | 0

28-11-2019 20:33  

Отключить всю рекламу на сайте

    Дорогой пользователь! Огромная просьба, поблагодарите релизера, оцените раздачу и оставьте свои комментарий, если Вы скачали Дезертиры и пленники через торрент бесплатно! Внесите свою лепту в развитие PiratBit!
    Комментировать посты могут только пользователи прошедшие не сложную регистрацию
    Показать сообщения:    

    Дезертиры и пленники через торрент
    Скачать бесплатно Дезертиры и пленники
    Дезертиры и пленники скачать торрент
    Дезертиры и пленники смотреть онлайн
    Cкачать фильм Дезертиры и пленники бесплатно
    Дезертиры и пленники скачать торрент в хорошем качестве
    Дезертиры и пленники смотреть онлайн бесплатно в хорошем качестве


    Вы не можете начинать темы
    Вы не можете отвечать на сообщения
    Вы не можете редактировать свои сообщения
    Вы не можете удалять свои сообщения
    Вы не можете голосовать в опросах
    Вы не можете прикреплять файлы к сообщениям
    Вы можете скачивать файлы