Присоединяйтесь к нам в Telegram!, здесь всегда актуальный адрес сайта, оперативная поддержка и многое другое!!

>

5.9

iTunes

7.4

iTunes

9.4

1 сезон

1

7.4

2 сезон

7.2

iTunes

7.3

1 сезон

13

6.1

iTunes

8.3

GOG

30

ULTIMATE

pack

9.9

Лицензия

ВАЖНО

ИГРА 18+

pack

7.3

RePack

MK11

7.7

RePack

jed

7.8

RePack

fifa19

8.5

RePack

RDR2

RePack

NEED FOR SPEED™ PAYBACK

5 сезон

9 сезон

Бесстыжие 9 сезон

Все сериалы

все сериалы на PB.wtf

RePack

FAR CRY 5

Anonymous, доброй ночи, мы катастрофически не успеваем собрать деньги на оплату серверов, помогите нам пожалуйста 5,10,15р., для нас важна любая помощь . В качестве благодарности мы отключим Вам всю рекламу на сайте (укажите свой ник в строку Ваше имя)!

×
  
Magnet ссылка

Ace of Base - The Video Hits Collection [2016 г., Евродэнс, WEBRip, Оригинальный] pb.wtf

Ace of Base - The Video Hits Collection через торрент pb.wtf

Размер: 666 MB | Добавлен: 2 года 10 мес. назад | Торрент скачан:70 раз
Смотреть онлайн Ace of Base - The Video Hits Collection | Скачать    Ребята, помогите собрать деньги на оплату серверов!!!

19-01-2019 09:24 Ace of Base - The Video Hits Collection Скачать торрент  

Ace of Base - The Video Hits Collection

Исполнитель: Ace of Base

Год выпуска: 2016
Страна: Россия Студия: MOM RecordsHD
Жанр: Евродэнс
Продолжительность: 01:03:12
Перевод: Оригинальный (английский)

Описание: Ace of Base – шведская музыкальная группа, которую легко можно назвать одним из самых востребованных коллективов 90-х. А началось все с того, что два приятеля - начиная с 1990 года, проводили эксперименты со стилем техно. Затем они пригласили сестер одного из них, которые получали музыкальное образование и пели в церковном хоре. Так обозначился состав будущей группы – квартет. Интересна история рождения названия коллектива. Многие усматривали в нем игру слов – один из переводов «асе оf base» – «козырной туз», но сами же участники объясняли причину данного им такого имени группе просто – их первая студия была в подвале автомастерской, поэтому перевод буквален - «асы студии»

01. All That She Wants
02. Beautiful Life
03. Beautiful Morning
04. C' est La Vie
05. Cruel Summer
06. Don' t Turn Around
07. Happy Nation
08. Life Is a Flower 09. Livin' In a Danger
10. Lucky Love
11. Never Gonna Say I' m Sorry
12. The Sign
13. Travel To Romantis
14. Unspeakable
15. Waiting For The Magic
16. Wheel of Fortune
17. Always Have, Always Will
18. All 4 You

Качество: WEBRip
Формат: AVI
Видео кодек: XviD
Аудио кодек: MP3
Видео: 704x400 (1.76:1), 23.976 fps, XviD build 65 ~1335 kbps avg, 0.20 bit/pixel
Аудио#1: 44.100 kHz, MPEG Layer 3, 2 ch, ~128.00 kbps avg
Общее
Полное имя : D:\torrent\Новая загрузка(док)\Ace.of.Base-The.Video.Hits.Collection.2016.avi
Формат : AVI
Формат/Информация : Audio Video Interleave
Размер файла : 666 Мбайт
Продолжительность : 1 ч. 3 м.
Общий поток : 1473 Кбит/сек
Программа кодирования : VirtualDubMod 1.5.10.3 | www.virtualdub-fr.org || (build 2550/release)
Библиотека кодирования : VirtualDub build 35491/release

Видео
Идентификатор : 0
Формат : MPEG-4 Visual
Профиль формата : Advanced Simple@L5
Настройки формата : BVOP2 / Custom Matrix
Параметр BVOP формата : 2
Параметр QPel формата : Нет
Параметр GMC формата : Без точки перехода
Параметр матрицы формата : Выборочная
Идентификатор кодека : XVID
Идентификатор кодека/Подсказка : XviD
Продолжительность : 1 ч. 3 м.
Битрейт : 1336 Кбит/сек
Ширина : 704 пикселя
Высота : 400 пикселей
Соотношение сторон : 16:9
Частота кадров : 23,976 (24000/1001) кадра/сек
Частота кадров в оригинале : 23,976 (23976/1000) кадра/сек
Цветовое пространство : YUV
Субдискретизация насыщенности : 4:2:0
Битовая глубина : 8 бит
Тип развёртки : Прогрессивная
Метод сжатия : С потерями
Бит/(Пиксели*Кадры) : 0.198
Размер потока : 604 Мбайт (91%)
Библиотека кодирования : XviD 65

Аудио
Идентификатор : 1
Формат : MPEG Audio
Версия формата : Version 1
Профиль формата : Layer 3
Настройки формата : Joint stereo / MS Stereo
Идентификатор кодека : 55
Идентификатор кодека/Подсказка : MP3
Продолжительность : 1 ч. 3 м.
Вид битрейта : Постоянный
Битрейт : 128 Кбит/сек
Каналы : 2 канала
Частота : 44,1 КГц
Метод сжатия : С потерями
Задержка видео : 15 мс.
Размер потока : 57,9 Мбайт (9%)
Выравнивание : Разделение по промежуткам
Продолжительность промежутка : 42 мс. (1,00 видеокадр)
Время предзагрузки промежутка : 500 мс.
Библиотека кодирования : LAME3.99.5

pb.wtf



Скачать Ace of Base - The Video Hits Collection через торрент https://pic1.kartinco.top/images/12/lcwm3.jpg Скачать, смотреть онлайн Ace of Base - The Video Hits Collection [2016 г., Евродэнс, WEBRip, Оригинальный] бесплантно в хорошем качестве Описание: Ace of Base – шведская музыкальная группа, которую легко можно назвать одним из самых востребованных коллективов 90-х. А началось ... 9 10 3
Торрент: Зарегистрирован [2019-01-19 09:24] · скачан: 70 раз
Статус: √ проверено
Размер: 666 MB
Как cкачать? Как скачать Ace of Base - The Video Hits Collection через торрент | UTorrent

28-11-2019 20:33  

Отключить всю рекламу на сайте

    Дорогой пользователь! Огромная просьба, поблагодарите релизера, оцените раздачу и оставьте свои комментарий, если Вы скачали Ace of Base - The Video Hits Collection через торрент бесплатно!
    Комментировать посты могут только пользователи прошедшие не сложную регистрацию
    Показать сообщения:    

    Ace of Base - The Video Hits Collection через торрент
    Скачать бесплатно Ace of Base - The Video Hits Collection
    Ace of Base - The Video Hits Collection скачать торрент
    Ace of Base - The Video Hits Collection смотреть онлайн
    Cкачать фильм Ace of Base - The Video Hits Collection бесплатно
    Ace of Base - The Video Hits Collection скачать торрент в хорошем качестве
    Ace of Base - The Video Hits Collection смотреть онлайн бесплатно в хорошем качестве


    Вы не можете начинать темы
    Вы не можете отвечать на сообщения
    Вы не можете редактировать свои сообщения
    Вы не можете удалять свои сообщения
    Вы не можете голосовать в опросах
    Вы не можете прикреплять файлы к сообщениям
    Вы можете скачивать файлы