Ссылка на приватное зеркало всего за 1$. Внимание количество ограничено!!!

OK

1+1

iTunes

мы

OK

1

WEB-DLRip

Джокер

Пифагор

Ведьмак / The Witcher сериал

iTunes

ПШазам

ОК

Оно 2

iTunes

30
pack

Вам бонус

ВАЖНО

!!Акция!!

Alien_RageХит недели

RePack

Resident Evil 21

ИГРА 18+

pack

RePack

jed

RePack

fifa19

RePack

Assassins Creed: Odyssey

RePack

NEED FOR SPEED™ PAYBACK

4 сезон

9 сезон

Бесстыжие 9 сезон

Все сериалы

все сериалы на PB.wtf

RePack

FAR CRY 5
  

Брексит / Brexit: The Uncivil War (Тоби Хэйнс) [2019, драма, биография, история, WEB-DL 720p] MVO [@MUZOBOZ@] pb.wtf

Брексит через торрент pb.wtf

Размер: 3.64 GB | Добавлен: 1 год назад | Торрент скачан:29 раз
Скачать  

19-01-2019 10:54 Брексит Скачать торрент  

Брексит / Brexit: The Uncivil WarГод выпуска: 2019
Страна: Великобритания
Жанр: драма, биография, история
Продолжительность: 01:33:35
Перевод: Любительский (многоголосый) | @MUZOBOZ@
Субтитры: отсутствуют

Режиссер: Тоби Хэйнс

rating

В ролях:

Бенедикт Камбербэтч, Рори Киннер, Лиз Уайт, Кайл Соллер, Джей Симпсон, Джон Хеффернан, Ли Бордман, Оливер Молтман, Марк Декстер, Николас Дэй

Описание:

Взгляд «за кулисы» британского референдума 2016 года, когда было принято решение о выходе Великобритании из Евросоюза. Одним из главных пропагандистов, повлиявших на мнение голосующих, стал политический стратег Доминик Каммингс, который возглавил победоносную агитационную кампанию Vote Leave - «Голосуй за выход».

Качество: WEB-DL 720p
Формат: MKV

Видео: h.264, 5 184 Кбит/с, 1280x720
Аудио#1: Русский, (AC3, 2 ch, 384 Кбит/с)
скриншот  скриншот  скриншот  

Общее
Уникальный идентификатор : 237956793797612028506623978253261915613 (0xB304CFBC238736DA8EA94D22F666C5DD)
Полное имя : D:\Brexit.The.Uncivil.War.2019.P.WEB-DL.72Op.mkv
Формат : Matroska
Версия формата : Version 2
Размер файла : 3,64 Гбайт
Продолжительность : 1 ч. 33 м.
Режим общего битрейта : Переменный
Общий поток : 5570 Кбит/сек
Дата кодирования : UTC 2019-01-18 21:04:14
Программа кодирования : mkvmerge v8.3.0 ('Over the Horizon') 64bit
Библиотека кодирования : libebml v1.3.1 + libmatroska v1.4.2

Видео
Идентификатор : 1
Формат : AVC
Формат/Информация : Advanced Video Codec
Профиль формата : High@L4.1
Параметр CABAC формата : Да
Параметр RefFrames формата : 4 кадра
Идентификатор кодека : V_MPEG4/ISO/AVC
Продолжительность : 1 ч. 33 м.
Вид битрейта : Переменный
Битрейт : 5184 Кбит/сек
Максимальный битрейт : 6000 Кбит/сек
Ширина : 1280 пикселей
Высота : 720 пикселей
Соотношение сторон : 16:9
Режим частоты кадров : Постоянный
Частота кадров : 23,976 (24000/1001) кадра/сек
Стандарт вещания : Component
Цветовое пространство : YUV
Субдискретизация насыщенности : 4:2:0
Битовая глубина : 8 бит
Тип развёртки : Прогрессивная
Бит/(Пиксели*Кадры) : 0.230
Размер потока : 3,32 Гбайт (91%)
Default : Да
Forced : Нет
Цветовой диапазон : Limited
Основные цвета : BT.709
Характеристики трансфера : BT.709
Коэффициенты матрицы : BT.709

Аудио
Идентификатор : 2
Формат : AC-3
Формат/Информация : Audio Coding 3
Расширение режима : CM (complete main)
Параметр Endianness формата : Big
Идентификатор кодека : A_AC3
Продолжительность : 1 ч. 33 м.
Вид битрейта : Постоянный
Битрейт : 384 Кбит/сек
Каналы : 2 канала
Расположение каналов : Front: L R
Частота : 48,0 КГц
Частота кадров : 31,250 кадров/сек (1536 spf)
Метод сжатия : С потерями
Размер потока : 257 Мбайт (7%)
Default : Да
Forced : Нет

pb.wtf



Скачать Брексит через торрент https://a.radikal.ru/a15/1901/23/bc67cd167113.jpg Скачать фильм Брексит через торрент бесплантно в хорошем качестве Описание: Взгляд «за кулисы» британского референдума 2016 года, когда было принято решение о выходе Великобритании из Евросоюза. Одним из ... 7 10 3
Торрент: Зарегистрирован [2019-01-19 10:54] · скачан: 29 раз
Статус: T временная
Размер: 3.64 GB
Как cкачать? Как скачать Брексит через торрент | qTorrent

% Раздел Тема Автор DL S | L
Фильмы 2019-2020 [DVDrip, WEB-DLRip, HDrip] (DUB, MVO) [ 1.46 GB ] Брексит / Brexit: The Uncivil War [2019 биография история WEB-DLRip] [MVO] killermax2013 Скачать
5 | 0
Фильмы (WEB-DL 720p, 1080p) [ 4.97 GB ] Брексит / Brexit: The Uncivil War [2019 биография история WEB-DL 1080p] [MVO] killermax2013 Скачать
4 | 0

28-11-2019 20:33  

Отключить всю рекламу на сайте

    Дорогой пользователь! Огромная просьба, поблагодарите релизера, оцените раздачу и оставьте свои комментарий, если Вы скачали Брексит через торрент бесплатно! Внесите свою лепту в развитие PiratBit!
    Комментировать посты могут только пользователи прошедшие не сложную регистрацию
    Показать сообщения:    

    Брексит через торрент
    Скачать бесплатно Брексит
    Брексит скачать торрент
    Брексит смотреть онлайн
    Cкачать фильм Брексит бесплатно
    Брексит скачать торрент в хорошем качестве
    Брексит смотреть онлайн бесплатно в хорошем качестве


    Вы не можете начинать темы
    Вы не можете отвечать на сообщения
    Вы не можете редактировать свои сообщения
    Вы не можете удалять свои сообщения
    Вы не можете голосовать в опросах
    Вы не можете прикреплять файлы к сообщениям
    Вы можете скачивать файлы