Присоединяйтесь к нам в Telegram!, здесь всегда актуальный адрес сайта, оперативная поддержка и многое другое!!

>

5.9

iTunes

7.4

iTunes

9.4

1 сезон

1

7.4

2 сезон

7.2

iTunes

7.3

1 сезон

13

6.1

iTunes

8.3

GOG

30

ULTIMATE

pack

9.9

Лицензия

ВАЖНО

ИГРА 18+

pack

7.3

RePack

MK11

7.7

RePack

jed

7.8

RePack

fifa19

8.5

RePack

RDR2

RePack

NEED FOR SPEED™ PAYBACK

5 сезон

9 сезон

Бесстыжие 9 сезон

Все сериалы

все сериалы на PB.wtf

RePack

FAR CRY 5

Anonymous, доброе утро, мы катастрофически не успеваем собрать деньги на оплату серверов, помогите нам пожалуйста 5,10,15р., для нас важна любая помощь . В качестве благодарности мы отключим Вам всю рекламу на сайте (укажите свой ник в строку Ваше имя)!

×
  
Magnet ссылка

La Bionda - The Video Hits Collection / La Bionda - The Video Hits Collection [2016 г., Disco, WEBRip, Оригинальный] pb.wtf

La Bionda - The Video Hits Collection через торрент pb.wtf

Размер: 398 MB | Добавлен: 2 года 10 мес. назад | Торрент скачан:21 раз
Смотреть онлайн La Bionda - The Video Hits Collection | Скачать    Ребята, помогите собрать деньги на оплату серверов!!!

19-01-2019 13:05 La Bionda - The Video Hits Collection Скачать торрент  

La Bionda - The Video Hits Collection / La Bionda - The Video Hits Collection

Исполнитель: La Bionda
Год выпуска: 2016
Страна: Россия Студия: MOM RecordsHD
Жанр: Disco
Продолжительность: 00:32:34
Перевод: Оригинальный

О группе: La Bionda - итальянский музыкальный дуэт братьев Кармело (род. 1949) и Микеланджело (род. 1952) Ла Бионда, которые считаются основателями итальянской диско-музыки. Популярность пришла после того, как братья обратились к стилю диско. Они переехали в Мюнхен, который в то время считался столицей танцевальной музыки. Ла Бионда были одними из первых, кто способствовал распространению стилю диско в Европе. Первый успех к ним пришёл под псевдонимом "DD Sound", который сопровождал их на протяжении всей музыкальной карьеры. Постепенно они «выросли» из диско, включая в него различные элементы ритм-н-блюз и латинской музыки.

1. Baby Make Love
2. 1 2 3 4 Gimme Some More
3. I Wanna Be Your Lover
4. Sandstorm
5. One For You, One For Me
6. Bandido
7. Boxes
8. Eeah Dada

Качество: WEBRip
Формат: AVI
Видео кодек: XviD
Аудио кодек: MP3
Видео: 704x400 (1.76:1), 23.976 fps, XviD build 65 ~1568 kbps avg, 0.23 bit/pixel
Аудио#1: 44.100 kHz, MPEG Layer 3, 2 ch, ~128.00 kbps avg
Общее
Полное имя : D:\torrent\Новая загрузка(док)\La.Bionda-The.Video.Hits.Collection.2016.avi
Формат : AVI
Формат/Информация : Audio Video Interleave
Размер файла : 398 Мбайт
Продолжительность : 32 м. 34 с.
Общий поток : 1706 Кбит/сек
Программа кодирования : VirtualDubMod 1.5.10.3 | www.virtualdub-fr.org || (build 2550/release)
Библиотека кодирования : VirtualDub build 35491/release

Видео
Идентификатор : 0
Формат : MPEG-4 Visual
Профиль формата : Advanced Simple@L5
Настройки формата : BVOP2 / Custom Matrix
Параметр BVOP формата : 2
Параметр QPel формата : Нет
Параметр GMC формата : Без точки перехода
Параметр матрицы формата : Выборочная
Идентификатор кодека : XVID
Идентификатор кодека/Подсказка : XviD
Продолжительность : 32 м. 34 с.
Битрейт : 1568 Кбит/сек
Ширина : 704 пикселя
Высота : 400 пикселей
Соотношение сторон : 16:9
Частота кадров : 23,976 (24000/1001) кадра/сек
Частота кадров в оригинале : 23,976 (23976/1000) кадра/сек
Цветовое пространство : YUV
Субдискретизация насыщенности : 4:2:0
Битовая глубина : 8 бит
Тип развёртки : Прогрессивная
Метод сжатия : С потерями
Бит/(Пиксели*Кадры) : 0.232
Размер потока : 365 Мбайт (92%)
Библиотека кодирования : XviD 65

Аудио
Идентификатор : 1
Формат : MPEG Audio
Версия формата : Version 1
Профиль формата : Layer 3
Настройки формата : Joint stereo / MS Stereo
Идентификатор кодека : 55
Идентификатор кодека/Подсказка : MP3
Продолжительность : 32 м. 34 с.
Вид битрейта : Постоянный
Битрейт : 128 Кбит/сек
Каналы : 2 канала
Частота : 44,1 КГц
Метод сжатия : С потерями
Задержка видео : 20 мс.
Размер потока : 29,8 Мбайт (8%)
Выравнивание : Разделение по промежуткам
Продолжительность промежутка : 42 мс. (1,00 видеокадр)
Время предзагрузки промежутка : 500 мс.
Библиотека кодирования : LAME3.99.*K

pb.wtf



Скачать La Bionda - The Video Hits Collection через торрент https://pic1.kartinco.top/images/12/2ni48.jpg Скачать, смотреть онлайн La Bionda - The Video Hits Collection бесплантно в хорошем качестве Трэклист Baby Make Love 1 2 3 4 Gimme Some More I Wanna Be Your Lover Sandstorm One For You, One For Me Bandido Boxes8. ... 9.3 10 3
Торрент: Зарегистрирован [2019-01-19 13:05] · скачан: 21 раз
Статус: √ проверено
Размер: 398 MB
Как cкачать? Как скачать La Bionda - The Video Hits Collection через торрент | UTorrent

28-11-2019 20:33  

Отключить всю рекламу на сайте

    Дорогой пользователь! Огромная просьба, поблагодарите релизера, оцените раздачу и оставьте свои комментарий, если Вы скачали La Bionda - The Video Hits Collection через торрент бесплатно!
    Комментировать посты могут только пользователи прошедшие не сложную регистрацию
    Показать сообщения:    

    La Bionda - The Video Hits Collection через торрент
    Скачать бесплатно La Bionda - The Video Hits Collection
    La Bionda - The Video Hits Collection скачать торрент
    La Bionda - The Video Hits Collection смотреть онлайн
    Cкачать фильм La Bionda - The Video Hits Collection бесплатно
    La Bionda - The Video Hits Collection скачать торрент в хорошем качестве
    La Bionda - The Video Hits Collection смотреть онлайн бесплатно в хорошем качестве


    Вы не можете начинать темы
    Вы не можете отвечать на сообщения
    Вы не можете редактировать свои сообщения
    Вы не можете удалять свои сообщения
    Вы не можете голосовать в опросах
    Вы не можете прикреплять файлы к сообщениям
    Вы можете скачивать файлы