2 сезон

iTunes

MVO

1

2 сезон

iTunes

iTunes

1 сезон

RePack

30

Новинка

ВАЖНО

ИГРА 18+

pack

RePack

MK11
pack

Легкие деньги

RePack

jed

RePack

fifa19

RePack

RDR2

RePack

NEED FOR SPEED™ PAYBACK

4 сезон

9 сезон

Бесстыжие 9 сезон

Все сериалы

все сериалы на PB.wtf

RePack

FAR CRY 5

Anonymous, доброй ночи, мы не успеваем собрать деньги на оплату серверов за декабрь и январь, помогите нам пожалуйста в это трудное время. В качестве благодарности мы отключим Вам всю рекламу на сайте (укажите свой ник в строку Ваше имя)!

×
  
Magnet ссылка

Joe Dassin - The Video Hits Collection [2016 г., Шансон, Поп-музыка, WEBRip, Оригинальный] pb.wtf

Joe Dassin - The Video Hits Collection через торрент pb.wtf

Размер: 831 MB | Добавлен: 2 года назад | Торрент скачан:11 раз
Скачать  

19-01-2019 13:56 Joe Dassin - The Video Hits Collection Скачать торрент  

Joe Dassin - The Video Hits Collection

Исполнитель: Joe Dassin

Год выпуска: 2016
Страна: Россия Студия: MOM RecordsHD
Жанр: Шансон, Поп-музыка
Продолжительность: 01:09:02
Перевод: Оригинальный

Об исполнителе: Его жизнь была подобна короткой, но яркой вспышке. Несмотря на то, что на земле Джо Дассену было отпущено лишь чуть больше сорока лет жизни, он в эти годы успел сделать головокружительную музыкальную карьеру и стать кумиром миллионов. Не случайно говорят, что истинный талант проверяется временем. Уже несколько десятков лет Дассена нет в живых, а песни французского шансонье по-прежнему звучат повсюду.

01. Salut
02. Taka Takata ( La Femme Du Toréro)
03. Siffler Sur La Colline
04. L' Amérique
05. Et Si Tu N' existais Pas
06. Il Était Une Fois Nous Deux
07. L' été Indien
08. A Toi
09. Le Café Des Trois Colombes
10. Et L' amour S' en Va
11. Côté Banjo, Côté Violon
12. Salut Les Amoureux
13. Les Champs - Elysées
14. Et Si Tu N`existais Pas
15. La Vie Se Chante, La Vie Se Pleure
16. Ça Va Pas Changer Le Monde
17. Si Tu T 'appelles Melancolie
18. The Guitar Don' t Lie
19. Indien Summer
20. Il Etait Une Fois Nous Deux
21. L' été Indien

Качество: WEBRip
Формат: AVI
Видео кодек: XviD
Аудио кодек: MP3
Видео: 704x400 (1.76:1), 23.976 fps, XviD build 65 ~1546 kbps avg, 0.23 bit/pixel
Аудио#1: 44.100 kHz, MPEG Layer 3, 2 ch, ~128.00 kbps avg
Общее
Полное имя : D:\torrent\Новая загрузка(док)\Joe.Dassin-The.Video.Hits.Collection.2016.avi
Формат : AVI
Формат/Информация : Audio Video Interleave
Размер файла : 831 Мбайт
Продолжительность : 1 ч. 9 м.
Общий поток : 1684 Кбит/сек
Программа кодирования : VirtualDubMod 1.5.10.3 | www.virtualdub-fr.org || (build 2550/release)
Библиотека кодирования : VirtualDub build 35491/release

Видео
Идентификатор : 0
Формат : MPEG-4 Visual
Профиль формата : Advanced Simple@L5
Настройки формата : BVOP2 / Custom Matrix
Параметр BVOP формата : 2
Параметр QPel формата : Нет
Параметр GMC формата : Без точки перехода
Параметр матрицы формата : Выборочная
Идентификатор кодека : XVID
Идентификатор кодека/Подсказка : XviD
Продолжительность : 1 ч. 9 м.
Битрейт : 1546 Кбит/сек
Ширина : 704 пикселя
Высота : 400 пикселей
Соотношение сторон : 16:9
Частота кадров : 23,976 (24000/1001) кадра/сек
Частота кадров в оригинале : 23,976 (23976/1000) кадра/сек
Цветовое пространство : YUV
Субдискретизация насыщенности : 4:2:0
Битовая глубина : 8 бит
Тип развёртки : Прогрессивная
Метод сжатия : С потерями
Бит/(Пиксели*Кадры) : 0.229
Размер потока : 764 Мбайт (92%)
Библиотека кодирования : XviD 65

Аудио
Идентификатор : 1
Формат : MPEG Audio
Версия формата : Version 1
Профиль формата : Layer 3
Идентификатор кодека : 55
Идентификатор кодека/Подсказка : MP3
Продолжительность : 1 ч. 9 м.
Вид битрейта : Постоянный
Битрейт : 128 Кбит/сек
Каналы : 2 канала
Частота : 44,1 КГц
Метод сжатия : С потерями
Задержка видео : 15 мс.
Размер потока : 63,2 Мбайт (8%)
Выравнивание : Разделение по промежуткам
Продолжительность промежутка : 42 мс. (1,00 видеокадр)
Время предзагрузки промежутка : 500 мс.

pb.wtf



Скачать Joe Dassin - The Video Hits Collection через торрент http://pic1.kartinco.top/images/12/evm54.jpg Скачать фильм Joe Dassin - The Video Hits Collection [2016 г., Шансон, Поп-музыка, WEBRip, Оригинальный]через торрент бесплантно в хорошем качестве Трэклист Salut Taka Takata ( La Femme Du Toréro) Siffler Sur La Colline L' Amérique Et Si Tu N' existais Pas Il Était ... 5 10 1
Торрент: Зарегистрирован [2019-01-19 13:56] · скачан: 11 раз
Статус: √ проверено
Размер: 831 MB
Как cкачать? Как скачать Joe Dassin - The Video Hits Collection через торрент | UTorrent

28-11-2019 20:33  

Отключить всю рекламу на сайте

    Дорогой пользователь! Огромная просьба, поблагодарите релизера, оцените раздачу и оставьте свои комментарий, если Вы скачали Joe Dassin - The Video Hits Collection через торрент бесплатно! Внесите свою лепту в развитие PiratBit!
    Комментировать посты могут только пользователи прошедшие не сложную регистрацию
    Показать сообщения:    

    Joe Dassin - The Video Hits Collection через торрент
    Скачать бесплатно Joe Dassin - The Video Hits Collection
    Joe Dassin - The Video Hits Collection скачать торрент
    Joe Dassin - The Video Hits Collection смотреть онлайн
    Cкачать фильм Joe Dassin - The Video Hits Collection бесплатно
    Joe Dassin - The Video Hits Collection скачать торрент в хорошем качестве
    Joe Dassin - The Video Hits Collection смотреть онлайн бесплатно в хорошем качестве


    Вы не можете начинать темы
    Вы не можете отвечать на сообщения
    Вы не можете редактировать свои сообщения
    Вы не можете удалять свои сообщения
    Вы не можете голосовать в опросах
    Вы не можете прикреплять файлы к сообщениям
    Вы можете скачивать файлы