Ссылка на приватное зеркало нашего сайта всего за 1$. Внимание количество ограничено!!!

2 сезон

iTunes

1 сезон

1

2 сезон

2 сезон

iTunes

1 сезон

RePack

30

Ultimate

ВАЖНО

ИГРА 18+

pack

RePack

MK11
pack

Забери бонус

RePack

jed

!!Акция!!

Alien_Rage

RePack

fifa19

RePack

Assassins Creed: Odyssey

RePack

NEED FOR SPEED™ PAYBACK

4 сезон

9 сезон

Бесстыжие 9 сезон

Все сериалы

все сериалы на PB.wtf

RePack

FAR CRY 5
  

Розуэлл, Нью-Мексико / Roswell, New Mexico / Сезон: 1 / Серии: 1-13 из 13 (Тим Эндрю, Пол Уэсли, Джули Плек, Шири Эпплби) [2019, фантастика, драма, мелодрама, WEB-DLRip] MVO [Jaskier] pb.wtf

Розуэлл, Нью-Мексико через торрент pb.wtf

Размер: 6.43 GB | Добавлен: 1 год 5 мес. назад | Торрент скачан:14 раз
Скачать  

19-01-2019 15:22 Розуэлл, Нью-Мексико Скачать торрент  

Розуэлл, Нью-Мексико / Roswell, New Mexico
«***»
Страна: США
Год выпуска: 2019
Жанр: фантастика, драма, мелодрама
Продолжительность: ~ 00:43:00 серия
Перевод: Профессиональный (многоголосый закадровый) | Jaskier
Субтитры: отсутствуют

Режиссер: Тим Эндрю, Пол Уэсли, Джули Плек, Шири Эпплби

В ролях:

Джанин Мэйсон, Хезер Сайрус Хемменс, Уилльям Грили, Роза Арредондо, Стефани Хилл, Тайлер Блэкберн, Нэйтан Парсонс, Дж. Нэйтан Симмонс и др.

Описание:

Адаптация серии книг Мелинды Метц и ремейк сериала «Город пришельцев». Лиз Ортехо возвращается в родной город и обнаруживает, что её школьный возлюбленный на самом деле пришелец.



Качество: WEB-DLRip
Формат: AVI

Видео: XviD, ~ 1400 kbps, 720x400 (16:9), 23.976 fps
Аудио 1: MP3, 48,0 КГц, 2 ch, 128 kbps - Rus
Аудио 2: MP3, 48,0 КГц, 2 ch, 128 kbps - Eng


Реклама: Присутствует звуковая (два раза в начале и конце по 12 сек.)
Переведено и озвучено: студией Jaskier
Общее
Полное имя : G:\Загрузки\Roswell.New.Mexico.S01E01.WEB-DLRip.Rus.Eng.Jaskier.avi
Формат : AVI
Формат/Информация : Audio Video Interleave
Размер файла : 501 Мбайт
Продолжительность : 42 м. 26 с.
Общий поток : 1650 Кбит/сек
Программа кодирования : VirtualDubMod 1.5.10.3 | www.virtualdub-fr.org || (build 2550/release)
Библиотека кодирования : VirtualDubMod build 2550/release

Видео
Идентификатор : 0
Формат : MPEG-4 Visual
Профиль формата : Advanced Simple@L5
Настройки формата : BVOP1 / Custom Matrix
Параметр BVOP формата : 1
Параметр QPel формата : Нет
Параметр GMC формата : Без точки перехода
Параметр матрицы формата : Выборочная
Идентификатор кодека : XVID
Идентификатор кодека/Подсказка : XviD
Продолжительность : 42 м. 26 с.
Битрейт : 1380 Кбит/сек
Ширина : 720 пикселей
Высота : 400 пикселей
Соотношение сторон : 16:9
Частота кадров : 23,976 (24000/1001) кадра/сек
Цветовое пространство : YUV
Субдискретизация насыщенности : 4:2:0
Битовая глубина : 8 бит
Тип развёртки : Прогрессивная
Метод сжатия : С потерями
Бит/(Пиксели*Кадры) : 0.200
Размер потока : 419 Мбайт (84%)
Библиотека кодирования : XviD 73

Аудио #1
Идентификатор : 1
Формат : MPEG Audio
Версия формата : Version 1
Профиль формата : Layer 3
Настройки формата : Joint stereo / MS Stereo
Идентификатор кодека : 55
Идентификатор кодека/Подсказка : MP3
Продолжительность : 42 м. 26 с.
Вид битрейта : Постоянный
Битрейт : 128 Кбит/сек
Каналы : 2 канала
Частота : 48,0 КГц
Метод сжатия : С потерями
Размер потока : 38,9 Мбайт (8%)
Выравнивание : Соединение по промежуткам
Продолжительность промежутка : 42 мс. (1,00 видеокадр)
Время предзагрузки промежутка : 504 мс.

Аудио #2
Идентификатор : 2
Формат : MPEG Audio
Версия формата : Version 1
Профиль формата : Layer 3
Настройки формата : Joint stereo / MS Stereo
Идентификатор кодека : 55
Идентификатор кодека/Подсказка : MP3
Продолжительность : 42 м. 26 с.
Вид битрейта : Постоянный
Битрейт : 128 Кбит/сек
Каналы : 2 канала
Частота : 48,0 КГц
Метод сжатия : С потерями
Размер потока : 38,9 Мбайт (8%)
Выравнивание : Соединение по промежуткам
Продолжительность промежутка : 42 мс. (1,00 видеокадр)
Время предзагрузки промежутка : 504 мс.
скриншот  скриншот  скриншот  
Раздача ведётся путём добавления новых серий; при каждом добавлении создаётся новый торрент.
Чтобы начать докачку новой серии, пользователям необходимо сделать следующее:
1. остановить скачивание,
2. удалить старый торрент у себя из клиента (старые серии удалять не надо),
3. скачать новый торрент и запустить его у себя в клиенте вместо старого, при этом указать клиенту путь в старую папку, куда и должно происходить скачивание новых серий.

Ваш клиент при этом должен произвести хеширование (проверку) старой папки (если не производит сам - помогите ему сделать это), и будет докачивать только те серии которых у вас ещё нет. Старые серии при этом не удаляются, а продолжают раздаваться!

Eсли вы уже удалили старые серии, то предотвратить повторную закачку старых серий можно, отжав галочку в соответствующих местах при запуске нового торрента. По возможности, желательно не удалять старые серии как можно дольше, чтобы релизёр не столько продолжал раздавать старые серии, а смог сконцентрироваться на новых.

Совет для тех, кто не хочет ждать перехеширования:
Создайте ещё одну папку рядом с папкой сериала (рядом, а не в ней!!!). Каждую новую серию после удачной загрузки копируйте в новую папку так чтобы ваша основная папка всегда была пуста. Когда ваш новый торрент предложит вам закачать все файлы, выберете только последнюю. Для сидирования же укажите адрес новой папки.

Как закачать отдельный файл из торрента или докачать ранее пропущенные файлы торрента!
1. Открыть торрент
2. Снять галки с тех файлов торрента, которые мы не хотим закачивать. Оставляем только на нужных нам файлах (файле).
3. Нажать О.К.

В клиенте utorrent

Инструкция

1) Открыть торрент


2) Снять галки с тех файлов торрента, которые мы не хотим закачивать:

* либо вручную, снимая с каждого файла галку( скрин №1)
* либо, нажав кнопку "Снять метки (Select None)", сняв сразу со всех файлов(скрин №2)
№1

№2

Оставляем только на нужных нам файлах (файле).

3)Нажать О.К
Приятного просмотра!!!pb.wtf



Скачать Розуэлл, Нью-Мексико через торрент https://i84.fastpic.ru/big/2019/0119/13/a5083f9aa6bd8654724660ef0f7b7013.png Скачать фильм Розуэлл, Нью-Мексико через торрент бесплантно в хорошем качестве Описание:Адаптация серии книг Мелинды Метц и ремейк сериала «Город пришельцев». Лиз Ортехо возвращается в родной город и обнаруживает, что ... 10 10 5
Info! Серебряная раздача, засчитывается только 50% скачанного.
Торрент: Зарегистрирован [2019-06-16 06:12] · скачан: 14 раз
Статус: √ проверено
Размер: 6.43 GB
Как cкачать? Как скачать Розуэлл, Нью-Мексико через торрент | qTorrent

% Раздел Тема Автор DL S | L
Зарубежные сериалы [ 19.49 GB ] Розуэлл Нью-Мексико / Roswell New Mexico / Сезон: 2 / Серии: 1-13 из 13 [2020 WEB-DL 720p] MVO [LostFilm] bober100 Скачать
1 | 0
Зарубежные сериалы [ 39.22 GB ] Розуэлл Нью-Мексико / Roswell New Mexico / Сезон: 2 / Серии: 1-13 из 13 [2020 WEB-DL 1080p] MVO [LostFilm] bober100 Скачать
1 | 0
Зарубежные сериалы [ 31.42 GB ] Розуэлл Нью-Мексико / Roswell New Mexico / Сезон: 1 / Серии: 1-13 из 13 [2019 WEB-DL 1080p] MVO [TVShows] bober100 Скачать
1 | 0
Зарубежные сериалы [ 10.29 GB ] Розуэлл Нью-Мексико / Roswell New Mexico / Сезон: 1 / Серии: 1-13 из 13 [2019 WEB-DLRip] MVO [Lostfilm] bober100 Скачать
1 | 0
Зарубежные сериалы [ 26.9 GB ] Розуэлл Нью-Мексико / Roswell New Mexico / Сезон: 1 / Серии: 1-13 из 13 [2019 WEB-DL 1080p] MVO [Jaskier] bober100 Скачать
1 | 0
Зарубежные сериалы [ 32.41 GB ] Розуэлл Нью-Мексико / Roswell New Mexico / Сезон: 1 / Серии: 1-13 из 13 [2019 WEB-DL 1080p] [MVO] killermax2013 Скачать
1 | 0

28-11-2019 20:33  

Отключить всю рекламу на сайте

    Дорогой пользователь! Огромная просьба, поблагодарите релизера, оцените раздачу и оставьте свои комментарий, если Вы скачали Розуэлл, Нью-Мексико через торрент бесплатно! Внесите свою лепту в развитие PiratBit!
    Комментировать посты могут только пользователи прошедшие не сложную регистрацию
    Показать сообщения:    

    Розуэлл, Нью-Мексико через торрент
    Скачать бесплатно Розуэлл, Нью-Мексико
    Розуэлл, Нью-Мексико скачать торрент
    Розуэлл, Нью-Мексико смотреть онлайн
    Cкачать фильм Розуэлл, Нью-Мексико бесплатно
    Розуэлл, Нью-Мексико скачать торрент в хорошем качестве
    Розуэлл, Нью-Мексико смотреть онлайн бесплатно в хорошем качестве


    Вы не можете начинать темы
    Вы не можете отвечать на сообщения
    Вы не можете редактировать свои сообщения
    Вы не можете удалять свои сообщения
    Вы не можете голосовать в опросах
    Вы не можете прикреплять файлы к сообщениям
    Вы можете скачивать файлы