Ссылка на приватное зеркало всего за 1$. Внимание количество ограничено!!!

OK

1+1

iTunes

мы

OK

1

WEB-DLRip

Джокер

Пифагор

Ведьмак / The Witcher сериал

iTunes

ПШазам

ОК

Оно 2

iTunes

30
pack

Вам бонус

ВАЖНО

!!Акция!!

Alien_RageХит недели

RePack

Resident Evil 21

ИГРА 18+

pack

RePack

jed

RePack

fifa19

RePack

Assassins Creed: Odyssey

RePack

NEED FOR SPEED™ PAYBACK

4 сезон

9 сезон

Бесстыжие 9 сезон

Все сериалы

все сериалы на PB.wtf

RePack

FAR CRY 5
  

Не всё то золото / Everything That Glitters (Дэн Гарсия) [2018, драма, WEB-DL 720p] MVO ["Синема УС"] pb.wtf

Не всё то золото через торрент pb.wtf

Размер: 2.76 GB | Добавлен: 1 год назад | Торрент скачан:22 раза
Скачать  

19-01-2019 16:09 Не всё то золото Скачать торрент  

Не всё то золото / Everything That Glitters Год выпуска: 2018
Страна: США
Жанр: драма
Продолжительность: 01:22:23
Перевод: Любительский (многоголосый) | "Синема УС"
Субтитры: отсутствуют

Режиссер: Дэн Гарсия

rating

В ролях:

Террелл Картер, Селин Сильвер

Описание:

Карл собирается продать семейный бизнес за целое состояние, пока его жена Виктория страдает от одиночества. Она знакомится с юным механиком, подчиненным своего мужа, и попадает в паутину лжи, предательств и насилия.

Качество: WEB-DL 720p
Формат: MKV

Видео: h.264, 4 406 kb/s, 1280x720
Аудио#1: Русский, (AC3, 2 ch, 384 Кбит/с)
скриншот  скриншот  скриншот  

Общее
Уникальный идентификатор : 223403630902003085727287401844618307992 (0xA811F9680C596A3FA02E34E193602998)
Полное имя : D:\Everything.That.Glitters.2018.P.WEB-DL.72Op_KOSHARA.mkv
Формат : Matroska
Версия формата : Version 2
Размер файла : 2,76 Гбайт
Продолжительность : 1 ч. 22 м.
Режим общего битрейта : Переменный
Общий поток : 4792 Кбит/сек
Дата кодирования : UTC 2019-01-16 08:11:44
Программа кодирования : mkvmerge v8.3.0 ('Over the Horizon') 64bit
Библиотека кодирования : libebml v1.3.1 + libmatroska v1.4.2

Видео
Идентификатор : 1
Формат : AVC
Формат/Информация : Advanced Video Codec
Профиль формата : High@L4.1
Параметр CABAC формата : Да
Параметр RefFrames формата : 4 кадра
Идентификатор кодека : V_MPEG4/ISO/AVC
Продолжительность : 1 ч. 22 м.
Вид битрейта : Переменный
Битрейт : 4406 Кбит/сек
Максимальный битрейт : 5000 Кбит/сек
Ширина : 1280 пикселей
Высота : 720 пикселей
Соотношение сторон : 16:9
Режим частоты кадров : Постоянный
Частота кадров : 23,976 (24000/1001) кадра/сек
Стандарт вещания : Component
Цветовое пространство : YUV
Субдискретизация насыщенности : 4:2:0
Битовая глубина : 8 бит
Тип развёртки : Прогрессивная
Бит/(Пиксели*Кадры) : 0.195
Размер потока : 2,48 Гбайт (90%)
Default : Да
Forced : Нет
Цветовой диапазон : Limited
Основные цвета : BT.709
Характеристики трансфера : BT.709
Коэффициенты матрицы : BT.709

Аудио
Идентификатор : 2
Формат : AC-3
Формат/Информация : Audio Coding 3
Расширение режима : CM (complete main)
Параметр Endianness формата : Big
Идентификатор кодека : A_AC3
Продолжительность : 1 ч. 22 м.
Вид битрейта : Постоянный
Битрейт : 384 Кбит/сек
Каналы : 2 канала
Расположение каналов : Front: L R
Частота : 48,0 КГц
Частота кадров : 31,250 кадров/сек (1536 spf)
Метод сжатия : С потерями
Размер потока : 226 Мбайт (8%)
Default : Да
Forced : Нет

pb.wtf



Скачать Не всё то золото через торрент https://c.radikal.ru/c18/1901/49/dee1a86e9955.jpg Скачать фильм Не всё то золото через торрент бесплантно в хорошем качестве Описание: Карл собирается продать семейный бизнес за целое состояние, пока его жена Виктория страдает от одиночества. Она знакомится с юным ... 10 10 2
Торрент: Зарегистрирован [2019-01-19 16:09] · скачан: 22 раз
Статус: T временная
Размер: 2.76 GB
Как cкачать? Как скачать Не всё то золото через торрент | qTorrent

% Раздел Тема Автор DL S | L
T Фильмы (мультфильмы) cо спонсором показа (Новинки AVI/MKV) [ 1.37 GB ] Не всё то золото / Everything That Glitters [2018 WEB-DLRip] MVO ["Синема УС"] bober100 Скачать
1 | 0

28-11-2019 20:33  

Отключить всю рекламу на сайте

    Дорогой пользователь! Огромная просьба, поблагодарите релизера, оцените раздачу и оставьте свои комментарий, если Вы скачали Не всё то золото через торрент бесплатно! Внесите свою лепту в развитие PiratBit!
    Комментировать посты могут только пользователи прошедшие не сложную регистрацию
    Показать сообщения:    

    Не всё то золото через торрент
    Скачать бесплатно Не всё то золото
    Не всё то золото скачать торрент
    Не всё то золото смотреть онлайн
    Cкачать фильм Не всё то золото бесплатно
    Не всё то золото скачать торрент в хорошем качестве
    Не всё то золото смотреть онлайн бесплатно в хорошем качестве


    Вы не можете начинать темы
    Вы не можете отвечать на сообщения
    Вы не можете редактировать свои сообщения
    Вы не можете удалять свои сообщения
    Вы не можете голосовать в опросах
    Вы не можете прикреплять файлы к сообщениям
    Вы можете скачивать файлы