Ссылка на приватное зеркало нашего сайта всего за 1$. Внимание количество ограничено!!!

2 сезон

iTunes

1 сезон

1

2 сезон

2 сезон

iTunes

1 сезон

RePack

30

Ultimate

ВАЖНО

ИГРА 18+

pack

RePack

MK11
pack

Забери бонус

RePack

jed

!!Акция!!

Alien_Rage

RePack

fifa19

RePack

Assassins Creed: Odyssey

RePack

NEED FOR SPEED™ PAYBACK

4 сезон

9 сезон

Бесстыжие 9 сезон

Все сериалы

все сериалы на PB.wtf

RePack

FAR CRY 5
  

Половое воспитание / Всё о сексе / Sex Education / Сезон: 1 / Серии: 1-8 из 8 (Кейт Херрон, Бен Тэйлор) [2019, Драма, комедия, WEB-DLRip] MVO [BTI Studios] pb.wtf

Половое воспитание через торрент pb.wtf

Раздают: 1 [ 0 KB/s ]
Размер: 7.79 GB | Добавлен: 1 год 10 мес. назад | Торрент скачан:171 раз
Скачать  

19-01-2019 16:20 Половое воспитание Скачать торрент  

Половое воспитание / Всё о сексе / Sex Education Год выпуска: 2019
Страна: США
Жанр: Драма, комедия
Продолжительность: ~00:52:00
Перевод: Профессиональный (многоголосый закадровый) | BTI Studios
Субтитры: Русские (форсированные)

Режиссёр: Кейт Херрон, Бен Тэйлор

В ролях:

Джиллиан Андерсон, Эйса Баттерфилд, Эмма Маккей, Нкути Гатуа, Шанель Кулар, Алистэр Петри, Коннор Суинделлс, Александр Вествуд, Кедар Уильямс-Стирлинг, Мими Кин, Таня Рейнольдс, Патриция Эллисон, Симон Эшли

Описание:

Сериал расскажет о неловком шестнадцатилетнем парне по имени Отис (Эйса Баттерфилд). Его мама (Джиллиан Андерсон) работает секс-терапевтом. Поэтому юноша, несмотря на свою необщительность с противоположным полом, неплохо разбирается в физиологии и психологии. Однажды, объединившись со своей одноклассницей - остроумной «плохой девочкой» Мэйв, Отис решает открыть в школе подпольные курсы сексуального воспитания, чтобы помочь одноклассникам справиться с переживаниями и сложностями переходного возраста. А заодно – подзаработать немного денег. Правда, довольно быстро юноша понимает, что ему самому не помешала бы профессиональная помощь в этих вопросах.




Качество: WEB-DLRip
Формат: AVI

Видео: XviD, 704x352, 25 fps, ~2000 kbps
Аудио #1: 48 kHz, AC3 Dolby Digital, 3/2 (L,C,R,l,r) + LFE ch, ~384 kbps | Rus
Аудио #2: 48 kHz, AC3 Dolby Digital, 3/2 (L,C,R,l,r) + LFE ch, ~384 kbps | Eng


*За исходный материал спасибо EniaHD
Format : AVI
Format/Info : Audio Video Interleave
File size : 994 MiB
Duration : 49 min 50 s
Overall bit rate : 2 788 kb/s
Writing application : VirtualDubMod 1.5.10.2 (build 2540/release)
Writing library : VirtualDubMod build 2540/release

Video
ID : 0
Format : MPEG-4 Visual
Format profile : Advanced Simple@L5
Format settings : BVOP1 / Custom Matrix
Format settings, BVOP : 1
Format settings, QPel : No
Format settings, GMC : No warppoints
Format settings, Matrix : Custom
Codec ID : XVID
Codec ID/Hint : XviD
Duration : 49 min 50 s
Bit rate : 2 005 kb/s
Width : 704 pixels
Height : 352 pixels
Display aspect ratio : 2.000
Frame rate : 25.000 FPS
Color space : YUV
Chroma subsampling : 4:2:0
Bit depth : 8 bits
Scan type : Progressive
Compression mode : Lossy
Bits/(Pixel*Frame) : 0.324
Stream size : 715 MiB (72%)
Writing library : XviD 73

Audio #1
ID : 1
Format : AC-3
Format/Info : Audio Coding 3
Codec ID : 2000
Duration : 49 min 50 s
Bit rate mode : Constant
Bit rate : 384 kb/s
Channel(s) : 6 channels
Channel positions : Front: L C R, Side: L R, LFE
Sampling rate : 48.0 kHz
Frame rate : 31.250 FPS (1536 SPF)
Bit depth : 16 bits
Compression mode : Lossy
Stream size : 137 MiB (14%)
Alignment : Split accross interleaves
Interleave, duration : 40 ms (1.00 video frame)
Interleave, preload duratio : 500 ms
Service kind : Complete Main

Audio #2
ID : 2
Format : AC-3
Format/Info : Audio Coding 3
Codec ID : 2000
Duration : 49 min 50 s
Bit rate mode : Constant
Bit rate : 384 kb/s
Channel(s) : 6 channels
Channel positions : Front: L C R, Side: L R, LFE
Sampling rate : 48.0 kHz
Frame rate : 31.250 FPS (1536 SPF)
Bit depth : 16 bits
Compression mode : Lossy
Stream size : 137 MiB (14%)
Alignment : Split accross interleaves
Interleave, duration : 40 ms (1.00 video frame)
Interleave, preload duratio : 500 ms
Service kind : Complete Main
скриншот  скриншот  скриншот  скриншот  
pb.wtf



Скачать Половое воспитание через торрент https://i84.fastpic.ru/big/2019/0118/3a/78bec5ded110e4c1b281bc3566c8083a.jpg Скачать фильм Половое воспитание через торрент бесплантно в хорошем качестве Описание: Сериал расскажет о неловком шестнадцатилетнем парне по имени Отис (Эйса Баттерфилд). Его мама (Джиллиан Андерсон) работает ... 8.5 10 10
Торрент: Зарегистрирован [2019-01-19 16:20] · скачан: 171 раз
Статус: √ проверено
Размер: 7.79 GB
Как cкачать? Как скачать Половое воспитание через торрент | qTorrent

% Раздел Тема Автор DL S | L
Зарубежные сериалы [ 18.73 GB ] Половое воспитание / Сексуальное просвещение / Всё о сексе / Sex Education / Сезон: 2 / Серии: 1-8 из 8 [2020 WEBRip 1080p] MVO [BTI Studio & Пифагор / Netflix] bober100 Скачать
2 | 0
Зарубежные сериалы [ 40.54 GB ] Половое воспитание / Всё о сексе / Sex Education / Сезон: 2 / Серии: 1-8 из 8 [2020 WEBRip 1080p] [DVO] killermax2013 Скачать
1 | 0
Зарубежные сериалы [ 11.2 GB ] Половое воспитание / Сексуальное просвещение / Всё о сексе / Sex Education / Сезон: 2 / Серии: 1-8 из 8 [2020 WEBRip 720p] MVO [TVShows] bober100 Скачать
1 | 0
Зарубежные сериалы [ 5.85 GB ] Половое воспитание / Сексуальное просвещение / Всё о сексе / Sex Education / Сезон: 2 / Серии: 1-8 из 8 [2020 WEB-DLRip] MVO [LostFilm] bober100 Скачать
1 | 0
Зарубежные сериалы [ 17.23 GB ] Половое воспитание / Сексуальное просвещение / Всё о сексе / Sex Education / Сезон: 2 / Серии: 1-8 из 8 [2020 WEB-DL 1080p] MVO [Jaskier] bober100 Скачать
1 | 0
Зарубежные сериалы [ 10.26 GB ] Половое воспитание / Сексуальное просвещение / Всё о сексе / Sex Education / Сезон: 2 / Серии: 1-8 из 8 [2020 WEB-DL 720p] MVO [Jaskier] bober100 Скачать
1 | 0
Зарубежные сериалы [ 4.89 GB ] Половое воспитание / Сексуальное просвещение / Всё о сексе / Sex Education / Сезон: 2 / Серии: 1-8 из 8 [2020 WEB-DLRip] MVO [Jaskier] bober100 Скачать
2 | 0

28-11-2019 20:33  

Отключить всю рекламу на сайте

    Дорогой пользователь! Огромная просьба, поблагодарите релизера, оцените раздачу и оставьте свои комментарий, если Вы скачали Половое воспитание через торрент бесплатно! Внесите свою лепту в развитие PiratBit!
    Комментировать посты могут только пользователи прошедшие не сложную регистрацию
    Показать сообщения:    

    Половое воспитание через торрент
    Скачать бесплатно Половое воспитание
    Половое воспитание скачать торрент
    Половое воспитание смотреть онлайн
    Cкачать фильм Половое воспитание бесплатно
    Половое воспитание скачать торрент в хорошем качестве
    Половое воспитание смотреть онлайн бесплатно в хорошем качестве


    Вы не можете начинать темы
    Вы не можете отвечать на сообщения
    Вы не можете редактировать свои сообщения
    Вы не можете удалять свои сообщения
    Вы не можете голосовать в опросах
    Вы не можете прикреплять файлы к сообщениям
    Вы можете скачивать файлы