Ссылка на приватное зеркало нашего сайта всего за 1$. Внимание количество ограничено!!!

2 сезон

iTunes

1 сезон

1

iTunes

iTunes

iTunes

1 сезон

RePack

30

ИГРА 18+

pack

ВАЖНО

!!Акция!!

Alien_RageХит недели

RePack

MK11
pack

Забери бонус

RePack

jed

!!Акция!!

Alien_Rage

RePack

fifa19

RePack

Assassins Creed: Odyssey

RePack

NEED FOR SPEED™ PAYBACK

4 сезон

9 сезон

Бесстыжие 9 сезон

Все сериалы

все сериалы на PB.wtf

RePack

FAR CRY 5
  

Правила механика замков / Серии: 1-2 из 2 (Анна Зайцева (III) [2019, боевик, WEB-DL 1080p] pb.wtf

Правила механика замков через торрент pb.wtf

Размер: 4.3 GB | Добавлен: 1 год 9 мес. назад | Торрент скачан:70 раз
Скачать  

20-01-2019 01:58 Правила механика замков Скачать торрент  

Правила механика замковГод выпуска: 2019
Страна: Россия
Жанр: боевик
Продолжительность: ~ 00:50:00
Субтитры: отсутствуют

Режиссер: Анна Зайцева (III)



В ролях:

Алексей Матошин, Николай Клямчук, Анатолий Горячев, Роман Пахомов, Дмитрий Клепацкий, Анна Невская, Александр Носик, Филипп Рейнхардт

Описание:

Главный герой Ушаков, 30-летний неудачник, которого целыми днями пилит жена, работает местным участковым. Он пытается выследить вора-медвежатника Потапова, но сам оказывается пойманным. Ушаков, сидя в тайном подвале Потапова, узнаёт, что тот тоже является заложником неких международных преступников, заставляющих его украсть электронный ключ из банка. В дальнейшем Ушаков попадает в череду событий, которые приводят его к тому, что он становится соучастником ограбления банка. Пройдя через множество опасных ситуаций, участковый и вор становятся союзниками и друзьями, а Ушаков и вовсе принимает решение начать жизнь с чистого лица. Однако дело с банком принимает неожиданный поворот.

Качество: WEB-DL 1080p
Формат: MKV

Видео: 1920х1080 (16:9), 25 fps, AVC MPEG-4 (x264), High@L4.0 ~ 6000 kbps avg, 0.116 bit/pixel
Аудио: AC3 Dolby Digital, 48.0 kHz, 2/0 (L,R) ch, 192 kbps
скриншот  скриншот  скриншот  скриншот  

General
Unique ID : 219024742213264789262451720030753731511 (0xA4C6A18687CD58C9914D9BFE867933B7)
Complete name : D:\Pravila.mehanika.zamkov.2017.WEB-DL.(1080p).Nikolspup\Pravila.mehanika.zamkov.(01.seriya.iz.02).2017.WEB-DL.(1080p).Nikolspup.mkv
Format : Matroska
Format version : Version 4 / Version 2
File size : 2.19 GiB
Duration : 50 min 52 s
Overall bit rate mode : Constant
Overall bit rate : 6 176 kb/s
Encoded date : UTC 2019-01-19 20:29:30
Writing application : mkvmerge v7.8.0 ('River Man') 32bit built on Mar 27 2015 16:18:02
Writing library : libebml v1.3.1 + libmatroska v1.4.2

Video
ID : 1
Format : AVC
Format/Info : Advanced Video Codec
Format profile : High@L4.1
Format settings : 2 Ref Frames
Format settings, CABAC : No
Format settings, ReFrames : 2 frames
Codec ID : V_MPEG4/ISO/AVC
Duration : 50 min 51 s
Bit rate mode : Constant
Bit rate : 6 000 kb/s
Width : 1 920 pixels
Height : 1 080 pixels
Display aspect ratio : 16:9
Frame rate mode : Constant
Frame rate : 25.000 FPS
Standard : PAL
Color space : YUV
Chroma subsampling : 4:2:0
Bit depth : 8 bits
Scan type : Progressive
Bits/(Pixel*Frame) : 0.116
Stream size : 2.13 GiB (97%)
Default : Yes
Forced : No
Color range : Limited
Color primaries : BT.709
Transfer characteristics : BT.709
Matrix coefficients : BT.709

Audio
ID : 2
Format : AC-3
Format/Info : Audio Coding 3
Codec ID : A_AC3
Duration : 50 min 52 s
Bit rate mode : Constant
Bit rate : 192 kb/s
Channel(s) : 2 channels
Channel positions : Front: L R
Sampling rate : 48.0 kHz
Frame rate : 31.250 FPS (1536 SPF)
Bit depth : 16 bits
Compression mode : Lossy
Stream size : 69.9 MiB (3%)
Language : Russian
Service kind : Complete Main
Default : Yes
Forced : No

pb.wtf



Скачать Правила механика замков через торрент https://img10.lostpic.net/2019/01/19/66e13b5ef6ed67acd828bb4cce724696.jpg Скачать фильм Правила механика замков через торрент бесплантно в хорошем качестве Описание: Главный герой Ушаков, 30-летний неудачник, которого целыми днями пилит жена, работает местным участковым. Он пытается выследить ... 9.2 10 5
Торрент: Зарегистрирован [2019-01-20 01:58] · скачан: 70 раз
Статус: √ проверено
Размер: 4.3 GB
Как cкачать? Как скачать Правила механика замков через торрент | qTorrent

% Раздел Тема Автор DL S | L
Наши сериалы [ 1.53 GB ] Правила механика замков / Серии: 1-2 из 2 [2019 WEBRip-AVC] bober100 Скачать
1 | 0
Наши сериалы [ 1.25 GB ] Правила механика замков / Серии: 1-2 из 2 [2019 WEBRip] bober100 Скачать
1 | 0
Наши сериалы [ 1.17 GB ] Правила механика замков / Серии: 1-2 из 2 [2019 SATRip] bober100 Скачать
1 | 0

28-11-2019 20:33  

Отключить всю рекламу на сайте

    Дорогой пользователь! Огромная просьба, поблагодарите релизера, оцените раздачу и оставьте свои комментарий, если Вы скачали Правила механика замков через торрент бесплатно! Внесите свою лепту в развитие PiratBit!
    Комментировать посты могут только пользователи прошедшие не сложную регистрацию
    Показать сообщения:    

    Правила механика замков через торрент
    Скачать бесплатно Правила механика замков
    Правила механика замков скачать торрент
    Правила механика замков смотреть онлайн
    Cкачать фильм Правила механика замков бесплатно
    Правила механика замков скачать торрент в хорошем качестве
    Правила механика замков смотреть онлайн бесплатно в хорошем качестве


    Вы не можете начинать темы
    Вы не можете отвечать на сообщения
    Вы не можете редактировать свои сообщения
    Вы не можете удалять свои сообщения
    Вы не можете голосовать в опросах
    Вы не можете прикреплять файлы к сообщениям
    Вы можете скачивать файлы