Ссылка на приватное зеркало нашего сайта всего за 1$. Внимание количество ограничено!!!

2 сезон

iTunes

1 сезон

1

iTunes

iTunes

iTunes

1 сезон

RePack

30

ИГРА 18+

pack

ВАЖНО

!!Акция!!

Alien_RageХит недели

RePack

MK11
pack

Забери бонус

RePack

jed

!!Акция!!

Alien_Rage

RePack

fifa19

RePack

Assassins Creed: Odyssey

RePack

NEED FOR SPEED™ PAYBACK

4 сезон

9 сезон

Бесстыжие 9 сезон

Все сериалы

все сериалы на PB.wtf

RePack

FAR CRY 5
  

Правила механика замков / Серии: 1-2 из 2 (Анна Зайцева (III) [2019, боевик, WEBRip] pb.wtf

Правила механика замков через торрент pb.wtf

Размер: 1.25 GB | Добавлен: 1 год 9 мес. назад | Торрент скачан:108 раз
Скачать  

20-01-2019 02:08 Правила механика замков Скачать торрент  

Правила механика замковГод выпуска: 2019
Страна: Россия
Жанр: боевик
Продолжительность: ~ 00:50:00
Субтитры: отсутствуют

Режиссер: Анна Зайцева (III)



В ролях:

Алексей Матошин, Николай Клямчук, Анатолий Горячев, Роман Пахомов, Дмитрий Клепацкий, Анна Невская, Александр Носик, Филипп Рейнхардт

Описание:

Главный герой Ушаков, 30-летний неудачник, которого целыми днями пилит жена, работает местным участковым. Он пытается выследить вора-медвежатника Потапова, но сам оказывается пойманным. Ушаков, сидя в тайном подвале Потапова, узнаёт, что тот тоже является заложником неких международных преступников, заставляющих его украсть электронный ключ из банка. В дальнейшем Ушаков попадает в череду событий, которые приводят его к тому, что он становится соучастником ограбления банка. Пройдя через множество опасных ситуаций, участковый и вор становятся союзниками и друзьями, а Ушаков и вовсе принимает решение начать жизнь с чистого лица. Однако дело с банком принимает неожиданный поворот.

Качество: WEBRip
Формат: AVI

Видео: XviD, ~ 1600 Кбит/с, 720x400
Аудио: AC3, 2 ch, 192 Кбит/с
скриншот  скриншот  скриншот  скриншот  

General
Complete name : Downloads\Pravila mehanika zamkov (2017). WEBRip.Files-x\01.Pravila mehanika zamkov.(2017).WEBRip.Files-x.avi.avi
Format : AVI
Format/Info : Audio Video Interleave
File size : 655 MiB
Duration : 50mn 51s
Overall bit rate : 1 802 Kbps
Writing application : VirtualDubMod 1.5.10.3 | www.virtualdub-fr.org || (build 2550/release)
Writing library : VirtualDubMod build 2550/release
Video #0
ID : 0
Format : MPEG-4 Visual
Format profile : Advanced Simple@L5
Format settings, BVOP : 1
Format settings, QPel : No
Format settings, GMC : No warppoints
Format settings, Matrix : Custom
Codec ID : XVID
Codec ID/Hint : XviD
Duration : 50mn 51s
Bit rate : 1 600 Kbps
Width : 720 pixels
Height : 400 pixels
Display aspect ratio : 16:9
Frame rate : 25.000 fps
Color space : YUV
Chroma subsampling : 4:2:0
Bit depth : 8 bits
Scan type : Progressive
Compression mode : Lossy
Bits/(Pixel*Frame) : 0.222
Stream size : 582 MiB (89%)
Writing library : XviD 73
Audio #1
ID : 1
Format : AC-3
Format/Info : Audio Coding 3
Mode extension : CM (complete main)
Format settings, Endianness : Big
Codec ID : 2000
Duration : 50mn 51s
Bit rate mode : Constant
Bit rate : 192 Kbps
Channel(s) : 2 channels
Channel positions : Front: L R
Sampling rate : 48.0 KHz
Bit depth : 16 bits
Compression mode : Lossy
Stream size : 69.9 MiB (11%)
Alignment : Split accross interleaves
Interleave, duration : 40 ms (1.00 video frame)
Interleave, preload duration : 500 ms

pb.wtf



Скачать Правила механика замков через торрент https://i106.fastpic.ru/big/2019/0120/f2/584f12ae437500d0ccadbacacb89d7f2.jpg Скачать фильм Правила механика замков через торрент бесплантно в хорошем качестве Описание: Главный герой Ушаков, 30-летний неудачник, которого целыми днями пилит жена, работает местным участковым. Он пытается выследить ... 9.7 10 3
Торрент: Зарегистрирован [2019-01-20 02:08] · скачан: 108 раз
Статус: √ проверено
Размер: 1.25 GB
Как cкачать? Как скачать Правила механика замков через торрент | qTorrent

% Раздел Тема Автор DL S | L
Наши сериалы [ 1.53 GB ] Правила механика замков / Серии: 1-2 из 2 [2019 WEBRip-AVC] bober100 Скачать
1 | 0
Наши сериалы [ 4.3 GB ] Правила механика замков / Серии: 1-2 из 2 [2019 WEB-DL 1080p] bober100 Скачать
1 | 0
Наши сериалы [ 1.17 GB ] Правила механика замков / Серии: 1-2 из 2 [2019 SATRip] bober100 Скачать
1 | 0

28-11-2019 20:33  

Отключить всю рекламу на сайте

    Дорогой пользователь! Огромная просьба, поблагодарите релизера, оцените раздачу и оставьте свои комментарий, если Вы скачали Правила механика замков через торрент бесплатно! Внесите свою лепту в развитие PiratBit!
    Комментировать посты могут только пользователи прошедшие не сложную регистрацию
    Показать сообщения:    

    Правила механика замков через торрент
    Скачать бесплатно Правила механика замков
    Правила механика замков скачать торрент
    Правила механика замков смотреть онлайн
    Cкачать фильм Правила механика замков бесплатно
    Правила механика замков скачать торрент в хорошем качестве
    Правила механика замков смотреть онлайн бесплатно в хорошем качестве


    Вы не можете начинать темы
    Вы не можете отвечать на сообщения
    Вы не можете редактировать свои сообщения
    Вы не можете удалять свои сообщения
    Вы не можете голосовать в опросах
    Вы не можете прикреплять файлы к сообщениям
    Вы можете скачивать файлы