Ссылка на приватное зеркало нашего сайта всего за 1$. Внимание количество ограничено!!!

2 сезон

iTunes

1 сезон

1

2 сезон

2 сезон

iTunes

1 сезон

RePack

30

Новинка

ВАЖНО

ИГРА 18+

pack

RePack

MK11
pack

Забери бонус

RePack

jed

!!Акция!!

Alien_Rage

RePack

fifa19

RePack

Assassins Creed: Odyssey

RePack

NEED FOR SPEED™ PAYBACK

4 сезон

9 сезон

Бесстыжие 9 сезон

Все сериалы

все сериалы на PB.wtf

RePack

FAR CRY 5
  

Гостевая Книга / The Guest Book / Сезон: 1 / Серии: 1-10 из 10 (Грегори Томас Гарсиа, Самир Реэм, Майкл Энглер) [2017, комедия, WEB-DLRip] MVO [Good People] pb.wtf

Гостевая Книга через торрент pb.wtf

Размер: 2.45 GB | Добавлен: 1 год 10 мес. назад | Торрент скачан:58 раз
Скачать  

20-01-2019 02:42 Гостевая Книга Скачать торрент  

Гостевая Книга / The Guest Book

Год выпуска: 2017
Страна: США
Жанр: комедия
Продолжительность: ~ 00:25:00
Перевод: Профессиональный (многоголосый закадровый) | Good People
Субтитры: отсутствуют

Режиссёр: Грегори Томас Гарсиа, Самир Реэм, Майкл Энглер

В ролях:

Карли Джибсон, Эдди Стиплз, Чарльз Робинсон, Лу Уилсон, Гаррет Диллахант, Кимико Гленн, Дэн Бирн, Алома Райт, Джимми Татро, Типпер Ньютон

Описание:

Истории посетителей отеля в курортном городке Моунт Трэйс, а также его обслуживающего персонала и руководства. Большинство посетителей обладают нестандартными привычками и не желают мириться со скучными правилами заведения. Они приехали сюда качественно отдохнуть и постоянно ищут приключений…

rating

Качество: WEB-DLRip
Формат: AVI

Видео: XviD, ~ 1400 kbps, 720x400, 23.976 fps
Аудио 1: MP3, 48,0 КГц, 2 ch, 128 kbps - RUS
Аудио 2: MP3, 48,0 КГц, 2 ch, 128 kbps - ENG


Реклама: аудио, два раза в начале и в конце по 12 секунд
Общее
Полное имя                               : I:\GoodPeople\The Guest Book. Season 1 (WEB-DLRip l 400p l Good People)\The.Guest.Book.S01E01.WEB-DLRip.Rus.Eng.GoodPeople.avi
Формат                                   : AVI
Формат/Информация                        : Audio Video Interleave
Размер файла                             : 250 Мбайт
Продолжительность                        : 20 м. 45 с.
Общий поток                              : 1688 Кбит/сек
Программа кодирования                    : VirtualDubMod 1.5.10.3 | www.virtualdub-fr.org || (build 2550/release)
Библиотека кодирования                   : VirtualDubMod build 2550/release

Видео
Идентификатор                            : 0
Формат                                   : MPEG-4 Visual
Профиль формата                          : Advanced Simple@L5
Настройки формата                        : BVOP1
Параметр BVOP формата                    : 1
Параметр QPel формата                    : Нет
Параметр GMC формата                     : Без точки перехода
Параметр матрицы формата                 : Default (MPEG)
Идентификатор кодека                     : XVID
Идентификатор кодека/Подсказка           : XviD
Продолжительность                        : 20 м. 45 с.
Битрейт                                  : 1418 Кбит/сек
Ширина                                   : 720 пикселей
Высота                                   : 400 пикселей
Соотношение сторон                       : 16:9
Частота кадров                           : 23,976 (24000/1001) кадра/сек
Цветовое пространство                    : YUV
Субдискретизация насыщенности            : 4:2:0
Битовая глубина                          : 8 бит
Тип развёртки                            : Прогрессивная
Метод сжатия                             : С потерями
Бит/(Пиксели*Кадры)                      : 0.205
Размер потока                            : 210 Мбайт (84%)
Библиотека кодирования                   : XviD 73

Аудио #1
Идентификатор                            : 1
Формат                                   : MPEG Audio
Версия формата                           : Version 1
Профиль формата                          : Layer 3
Настройки формата                        : Joint stereo / MS Stereo
Идентификатор кодека                     : 55
Идентификатор кодека/Подсказка           : MP3
Продолжительность                        : 20 м. 45 с.
Вид битрейта                             : Постоянный
Битрейт                                  : 128 Кбит/сек
Каналы                                   : 2 канала
Частота                                  : 48,0 КГц
Метод сжатия                             : С потерями
Размер потока                            : 19,0 Мбайт (8%)
Выравнивание                             : Соединение по промежуткам
Продолжительность промежутка             : 42  мс. (1,00 видеокадр)
Время предзагрузки промежутка            : 504  мс.

Аудио #2
Идентификатор                            : 2
Формат                                   : MPEG Audio
Версия формата                           : Version 1
Профиль формата                          : Layer 3
Настройки формата                        : Joint stereo / MS Stereo
Идентификатор кодека                     : 55
Идентификатор кодека/Подсказка           : MP3
Продолжительность                        : 20 м. 45 с.
Вид битрейта                             : Постоянный
Битрейт                                  : 128 Кбит/сек
Каналы                                   : 2 канала
Частота                                  : 48,0 КГц
Метод сжатия                             : С потерями
Размер потока                            : 19,0 Мбайт (8%)
Выравнивание                             : Соединение по промежуткам
Продолжительность промежутка             : 42  мс. (1,00 видеокадр)
Время предзагрузки промежутка            : 504  мс.
скриншот  скриншот  скриншот  скриншот  
pb.wtf



Скачать Гостевая Книга через торрент https://i110.fastpic.ru/big/2019/0120/84/ec59bcb05f7b653e9dda3dfa76ed1d84.jpg Скачать фильм Гостевая Книга через торрент бесплантно в хорошем качестве Описание: Истории посетителей отеля в курортном городке Моунт Трэйс, а также его обслуживающего персонала и руководства. Большинство ... 10 10 5
Торрент: Зарегистрирован [2019-01-20 02:42] · скачан: 58 раз
Статус: √ проверено
Размер: 2.45 GB
Как cкачать? Как скачать Гостевая Книга через торрент | qTorrent

% Раздел Тема Автор DL S | L
Зарубежные сериалы [ 3.92 GB ] Гостевая Книга / The Guest Book / Сезон: 2 / Серии: 1-10 из 10 [2018 WEBRip l 720p] [MVO] killermax2013 Скачать
1 | 0
Зарубежные сериалы [ 7.65 GB ] Гостевая Книга / The Guest Book / Сезон: 1 / Серии: 1-10 из 10 [2017 WEBRip 720p] MVO [Good People] bober100 Скачать
1 | 0
Зарубежные сериалы [ 7.81 GB ] Гостевая Книга / The Guest Book / Сезон: 2 / Серии: 1-10 из 10 [2018 WEBRip 720p] MVO [Good People] bober100 Скачать
1 | 0

28-11-2019 20:33  

Отключить всю рекламу на сайте

    Дорогой пользователь! Огромная просьба, поблагодарите релизера, оцените раздачу и оставьте свои комментарий, если Вы скачали Гостевая Книга через торрент бесплатно! Внесите свою лепту в развитие PiratBit!
    Комментировать посты могут только пользователи прошедшие не сложную регистрацию
    Показать сообщения:    

    Гостевая Книга через торрент
    Скачать бесплатно Гостевая Книга
    Гостевая Книга скачать торрент
    Гостевая Книга смотреть онлайн
    Cкачать фильм Гостевая Книга бесплатно
    Гостевая Книга скачать торрент в хорошем качестве
    Гостевая Книга смотреть онлайн бесплатно в хорошем качестве


    Вы не можете начинать темы
    Вы не можете отвечать на сообщения
    Вы не можете редактировать свои сообщения
    Вы не можете удалять свои сообщения
    Вы не можете голосовать в опросах
    Вы не можете прикреплять файлы к сообщениям
    Вы можете скачивать файлы