Ссылка на приватное зеркало нашего сайта всего за 1$. Внимание количество ограничено!!!

2 сезон

iTunes

1 сезон

1

2 сезон

2 сезон

iTunes

1 сезон

RePack

30

Новинка

ВАЖНО

ИГРА 18+

pack

RePack

MK11
pack

Забери бонус

RePack

jed

!!Акция!!

Alien_Rage

RePack

fifa19

RePack

Assassins Creed: Odyssey

RePack

NEED FOR SPEED™ PAYBACK

4 сезон

9 сезон

Бесстыжие 9 сезон

Все сериалы

все сериалы на PB.wtf

RePack

FAR CRY 5
  

Одаренные / The Gifted / Сезон: 2 / Серии: 1-16 из 16 (Брайан Сингер) [2018, Фантастика, боевик, WEB-DLRip] [MVO] (Good People) pb.wtf

Одаренные через торрент pb.wtf

Размер: 8.54 GB | Добавлен: 1 год назад | Торрент скачан:3 раза
Скачать  

20-01-2019 11:10 Одаренные Скачать торрент  


Одаренные | The Gifted

Год выпуска: 2018
Страна: США
Жанр: Фантастика, боевик
Продолжительность: ~ 00:43:00
Перевод: Профессиональный (многоголосый закадровый) | Good People


Режиссёр: Брайан Сингер
В ролях: Колин Битон, Эми Акер, Стеффан Аргус, Билли Блэр, Джейсон Бремер, Пол Каревей, Эмма Дюмон, Дэйл Годбольдо и др. и другие.
Описание: В центре сюжета сериала «Одаренные» оказываются самые обычные родители, которые даже представить не могли, что их дети особенные. У детей стали проявляться необычайные способности, сверхъестественные возможности. Для кого – то они покажутся даром, но для этих людей они обернулись серьезными проблемами. Родители пребывают в страхе за жизни своих детей, они стремятся не привлекать внимание к своей семье, чтобы обезопасить детей. Правительство настроено негативно по отношению к тем, кто отличается от большинства, поэтому они обращаются к подпольной организации, в которой состоят суперлюди.
rating
Качество: WEB-DLRip
Формат: AVI
Видео: XviD, ~ 1400 kbps, 720x400 (16:9), 23.976 fps
Аудио 1: MP3, 48,0 КГц, 2 ch, 128 kbps - Rus
Аудио 2: MP3, 48,0 КГц, 2 ch, 128 kbps - Eng
Субтитры: отсутствуют
Общее
Полное имя : G:\Загрузки\The.Gifted.S02E01.WEB-DLRip.Rus.Eng.GoodPeople.avi
Формат : AVI
Формат/Информация : Audio Video Interleave
Размер файла : 551 Мбайт
Продолжительность : 44 м. 26 с.
Общий поток : 1732 Кбит/сек
Программа кодирования : VirtualDubMod 1.5.10.3 | www.virtualdub-fr.org || (build 2550/release)
Библиотека кодирования : VirtualDubMod build 2550/release

Видео
Идентификатор : 0
Формат : MPEG-4 Visual
Профиль формата : Advanced Simple@L5
Настройки формата : BVOP1 / Custom Matrix
Параметр BVOP формата : 1
Параметр QPel формата : Нет
Параметр GMC формата : Без точки перехода
Параметр матрицы формата : Выборочная
Идентификатор кодека : XVID
Идентификатор кодека/Подсказка : XviD
Продолжительность : 44 м. 26 с.
Битрейт : 1462 Кбит/сек
Ширина : 720 пикселей
Высота : 400 пикселей
Соотношение сторон : 16:9
Частота кадров : 23,976 (24000/1001) кадра/сек
Частота кадров в оригинале : 23,976 (23976/1000) кадра/сек
Цветовое пространство : YUV
Субдискретизация насыщенности : 4:2:0
Битовая глубина : 8 бит
Тип развёртки : Прогрессивная
Метод сжатия : С потерями
Бит/(Пиксели*Кадры) : 0.212
Размер потока : 465 Мбайт (84%)
Библиотека кодирования : XviD 73

Аудио #1
Идентификатор : 1
Формат : MPEG Audio
Версия формата : Version 1
Профиль формата : Layer 3
Настройки формата : Joint stereo / MS Stereo
Идентификатор кодека : 55
Идентификатор кодека/Подсказка : MP3
Продолжительность : 44 м. 26 с.
Вид битрейта : Постоянный
Битрейт : 128 Кбит/сек
Каналы : 2 канала
Частота : 48,0 КГц
Метод сжатия : С потерями
Размер потока : 40,7 Мбайт (7%)
Выравнивание : Соединение по промежуткам
Продолжительность промежутка : 42 мс. (1,00 видеокадр)
Время предзагрузки промежутка : 504 мс.

Аудио #2
Идентификатор : 2
Формат : MPEG Audio
Версия формата : Version 1
Профиль формата : Layer 3
Настройки формата : Joint stereo / MS Stereo
Идентификатор кодека : 55
Идентификатор кодека/Подсказка : MP3
Продолжительность : 44 м. 26 с.
Вид битрейта : Постоянный
Битрейт : 128 Кбит/сек
Каналы : 2 канала
Частота : 48,0 КГц
Метод сжатия : С потерями
Размер потока : 40,7 Мбайт (7%)
Выравнивание : Соединение по промежуткам
Продолжительность промежутка : 42 мс. (1,00 видеокадр)
Время предзагрузки промежутка : 504 мс.
скриншот  скриншот  скриншот  
Когда раздача ведётся путём добавления новых серий, при каждом добавлении создётся новый торрент. Чтобы начать докачку новой серии, пользователям необходимо сделать следующее:
(1) остановить скачивание,
(2) удалить старый торрент у себя из клиента (старые серии удалять не надо),
(3) скачать новый торрент и запустить его у себя в клиенте вместо старого, при этом указать клиенту путь в старую папку, куда и должно происходить скачивание новых серий.
Ваш клиент при этом должен произвести хеширование (проверку) старой папки (если не производит сам - помогите ему сделать это), и будет докачивать только те серии, которых у вас ещё нет. Старые серии при этом не удаляются, а продолжают раздаваться!
Eсли вы уже удалили старые серии, то предотвратить повторную закачку старых серий можно, отжав галочку в соответсвующих местах при запуске нового торрента. По возможности, желательно не удалять старые серии как можно дольше, чтобы релизёр не столько продолжал раздавать старые серии, а смог сконцентрироваться на новых.

pb.wtf



Скачать Одаренные через торрент http://img10.lostpic.net/2018/10/17/e28797150032973130ce190bf66737f2.jpg Скачать фильм Одаренные через торрент бесплантно в хорошем качестве Описание: В центре сюжета сериала «Одаренные» оказываются самые обычные родители, которые даже представить не могли, что их дети особенные. ... 10 10 2
Торрент: Зарегистрирован [2019-11-21 17:59] · скачан: 3 раз
Статус: √ проверено
Размер: 8.54 GB
Как cкачать? Как скачать Одаренные через торрент | qTorrent

% Раздел Тема Автор DL S | L
Зарубежные сериалы [ 8.6 GB ] Одарённые / The Gifted / Сезон: 2 / Серии: 1-16 из 16 [2018 фэнтэзи WEB-DLRip] MVO [NewStudio] bober100 Скачать
2 | 0
Зарубежные сериалы [ 46.15 GB ] Одаренные / The Gifted / Сезон: 2 / Серии: 1-16 из 16 [2018 WEB-DL 1080p] 2x[MVO] killermax2013 Скачать
1 | 0
Зарубежные сериалы [ 19.94 GB ] Одаренные / The Gifted / Сезон: 2 / Серии: 1-16 из 16 [2018 WEB-DL 720p] [MVO] killermax2013 Скачать
1 | 0
Зарубежные сериалы [ 30.99 GB ] Одарённые / The Gifted / 2 сезон / Серии: 1-16 из 16 [2018 WEB-DL 1080p] [MVO] killermax2013 Скачать
1 | 0
Зарубежные сериалы [ 41.38 GB ] Одарённые / The Gifted / 2 сезон / 1-16 серия из 16 [2018 WEB-DL 1080p] [MVO] killermax2013 Скачать
1 | 0
Зарубежные сериалы [ 7.86 GB ] Одарённые / The Gifted / 2 сезон / 1-16 серия из 16 [2018 WEBRip] [MVO] killermax2013 Скачать
1 | 0
Зарубежные сериалы [ 40.75 GB ] Одаренные / The Gifted / 2 сезон / Серии: 1-16 из 16 [2018 WEB-DL 1080p] [MVO] killermax2013 Скачать
1 | 0

28-11-2019 20:33  

Отключить всю рекламу на сайте

    Дорогой пользователь! Огромная просьба, поблагодарите релизера, оцените раздачу и оставьте свои комментарий, если Вы скачали Одаренные через торрент бесплатно! Внесите свою лепту в развитие PiratBit!
    Комментировать посты могут только пользователи прошедшие не сложную регистрацию
    Показать сообщения:    

    Одаренные через торрент
    Скачать бесплатно Одаренные
    Одаренные скачать торрент
    Одаренные смотреть онлайн
    Cкачать фильм Одаренные бесплатно
    Одаренные скачать торрент в хорошем качестве
    Одаренные смотреть онлайн бесплатно в хорошем качестве


    Вы не можете начинать темы
    Вы не можете отвечать на сообщения
    Вы не можете редактировать свои сообщения
    Вы не можете удалять свои сообщения
    Вы не можете голосовать в опросах
    Вы не можете прикреплять файлы к сообщениям
    Вы можете скачивать файлы