Ссылка на приватное зеркало всего за 1$. Внимание количество ограничено!!!

OK

1+1

iTunes

мы

OK

1

WEB-DLRip

Джокер

Пифагор

Ведьмак / The Witcher сериал

Лицензия

ПШазам

ОК

Оно 2

iTunes

30
pack

Вам бонус

ВАЖНО

!!Акция!!

Alien_RageХит недели

RePack

Resident Evil 21

ИГРА 18+

pack

RePack

jed

RePack

fifa19

RePack

Assassins Creed: Odyssey

RePack

NEED FOR SPEED™ PAYBACK

4 сезон

9 сезон

Бесстыжие 9 сезон

Все сериалы

все сериалы на PB.wtf

RePack

FAR CRY 5
  

Не возвращайся с луны / Don't Come Back from the Moon (Брюс Тьерри Чунг) [2017, драма, WEB-DL 720p] MVO ["Синема УС"] pb.wtf

Не возвращайся с луны через торрент pb.wtf

Размер: 3.41 GB | Добавлен: 1 год назад | Торрент скачан:47 раз
Скачать  

20-01-2019 16:34 Не возвращайся с луны Скачать торрент  

Не возвращайся с луны / Don't Come Back from the Moon Год выпуска: 2017
Страна: США
Жанр: драма
Продолжительность: 01:23:48
Перевод: Любительский (многоголосый) | "Синема УС"
Субтитры: отсутствуют

Режиссер: Брюс Тьерри Чунг

rating

В ролях:

Джеймс Франко, Рашида Джонс, Джеффри Уолберг, Алисса Эль Стейнэкер, Закари Артур, Хейл Лайтл, Генри Хоппер, Иеремия Но, Скотти Крэйн, Чейен Хэйнс

Описание:

Все отцы в одном маленьком калифорнийском пустынном городке бросают своих детей одного за другим, оставляя после себя раздор, гнев, ярость и преступность, когда их сыновья и дочери достигают совершеннолетия.

Качество: WEB-DL 720p
Формат: MKV

Видео: h.264, 5 453 kb/s, 1280x536
Аудио#1: Русский, (AC3, 2 ch, 384 Кбит/с)
скриншот  скриншот  скриншот  

Общее
Уникальный идентификатор : 223900039373559738325269717521654984678 (0xA871943BD3F428BDB73D518FCE25AFE6)
Полное имя : D:\Dont.Come.Back.From.the.Moon.2018.P.WEB-DL.72Op_KOSHARA.mkv
Формат : Matroska
Версия формата : Version 2
Размер файла : 3,41 Гбайт
Продолжительность : 1 ч. 23 м.
Режим общего битрейта : Переменный
Общий поток : 5838 Кбит/сек
Дата кодирования : UTC 2019-01-20 09:54:32
Программа кодирования : mkvmerge v8.3.0 ('Over the Horizon') 64bit
Библиотека кодирования : libebml v1.3.1 + libmatroska v1.4.2

Видео
Идентификатор : 1
Формат : AVC
Формат/Информация : Advanced Video Codec
Профиль формата : High@L4.1
Параметр CABAC формата : Да
Параметр RefFrames формата : 4 кадра
Идентификатор кодека : V_MPEG4/ISO/AVC
Продолжительность : 1 ч. 23 м.
Вид битрейта : Переменный
Битрейт : 5453 Кбит/сек
Максимальный битрейт : 6000 Кбит/сек
Ширина : 1280 пикселей
Высота : 536 пикселей
Соотношение сторон : 2,40:1
Режим частоты кадров : Постоянный
Частота кадров : 23,976 (24000/1001) кадра/сек
Стандарт вещания : Component
Цветовое пространство : YUV
Субдискретизация насыщенности : 4:2:0
Битовая глубина : 8 бит
Тип развёртки : Прогрессивная
Бит/(Пиксели*Кадры) : 0.325
Размер потока : 3,12 Гбайт (91%)
Default : Да
Forced : Нет
Цветовой диапазон : Limited
Основные цвета : BT.709
Характеристики трансфера : BT.709
Коэффициенты матрицы : BT.709

Аудио
Идентификатор : 2
Формат : AC-3
Формат/Информация : Audio Coding 3
Расширение режима : CM (complete main)
Параметр Endianness формата : Big
Идентификатор кодека : A_AC3
Продолжительность : 1 ч. 23 м.
Вид битрейта : Постоянный
Битрейт : 384 Кбит/сек
Каналы : 2 канала
Расположение каналов : Front: L R
Частота : 48,0 КГц
Частота кадров : 31,250 кадров/сек (1536 spf)
Метод сжатия : С потерями
Размер потока : 230 Мбайт (7%)
Default : Да
Forced : Нет

pb.wtf



Скачать Не возвращайся с луны через торрент https://d.radikal.ru/d12/1901/15/8783111d6ef4.jpg Скачать фильм Не возвращайся с луны через торрент бесплантно в хорошем качестве Описание: Все отцы в одном маленьком калифорнийском пустынном городке бросают своих детей одного за другим, оставляя после себя раздор, ... 10 10 3
Торрент: Зарегистрирован [2019-01-20 16:34] · скачан: 47 раз
Статус: T временная
Размер: 3.41 GB
Как cкачать? Как скачать Не возвращайся с луны через торрент | qTorrent

28-11-2019 20:33  

Отключить всю рекламу на сайте

20-01-2019 18:30 Не возвращайся с луны Скачать торрент  

описание суперpb.wtf



20-01-2019 20:02 Не возвращайся с луны Скачать торрент  

вахвах писал(а):

описание супер

Да !pb.wtf



21-01-2019 08:18 Не возвращайся с луны Скачать торрент  

Как кино?pb.wtf



    Дорогой пользователь! Огромная просьба, поблагодарите релизера, оцените раздачу и оставьте свои комментарий, если Вы скачали Не возвращайся с луны через торрент бесплатно! Внесите свою лепту в развитие PiratBit!
    Комментировать посты могут только пользователи прошедшие не сложную регистрацию
    Показать сообщения:    

    Не возвращайся с луны через торрент
    Скачать бесплатно Не возвращайся с луны
    Не возвращайся с луны скачать торрент
    Не возвращайся с луны смотреть онлайн
    Cкачать фильм Не возвращайся с луны бесплатно
    Не возвращайся с луны скачать торрент в хорошем качестве
    Не возвращайся с луны смотреть онлайн бесплатно в хорошем качестве


    Вы не можете начинать темы
    Вы не можете отвечать на сообщения
    Вы не можете редактировать свои сообщения
    Вы не можете удалять свои сообщения
    Вы не можете голосовать в опросах
    Вы не можете прикреплять файлы к сообщениям
    Вы можете скачивать файлы