Ссылка на приватное зеркало нашего сайта всего за 1$. Внимание количество ограничено!!!

2 сезон

iTunes

1 сезон

1

2 сезон

2 сезон

iTunes

1 сезон

RePack

30

Ultimate

ВАЖНО

ИГРА 18+

pack

RePack

MK11
pack

Забери бонус

RePack

jed

!!Акция!!

Alien_Rage

RePack

fifa19

RePack

Assassins Creed: Odyssey

RePack

NEED FOR SPEED™ PAYBACK

4 сезон

9 сезон

Бесстыжие 9 сезон

Все сериалы

все сериалы на PB.wtf

RePack

FAR CRY 5
  

Звёздный путь: Дискавери / Star Trek: Discovery / Сезон: 2 / Серии: 1-14 из 14 (Олатунде Осунсанми, Дуглас Арниокоски, Джонатан Фрейкс) [2019, фантастика, боевик, драма, приключения., WEB-DLRip] MVO [LostFilm] pb.wtf

Звёздный путь: Дискавери через торрент pb.wtf

Размер: 10.07 GB | Добавлен: 1 год 7 мес. назад | Торрент скачан:93 раза
Скачать  

20-01-2019 17:49 Звёздный путь: Дискавери Скачать торрент  

Звёздный путь: Дискавери / Star Trek: Discovery Год выпуска: 2019
Страна: США
Жанр: фантастика, боевик, драма, приключения.
Продолжительность: ~ 01:00:00
Перевод: Профессиональный (многоголосый закадровый) | LostFilm

Субтитры: Русские (Forced | Full), Английские

Режиссёр: Олатунде Осунсанми, Дуглас Арниокоски, Джонатан Фрейкс

В ролях:

Сонекуа Мартин-Грин, Даг Джонс, Шазад Латиф, Энтони Рэпп, Джейсон Айзекс, Кеннет Митчелл, Эмили Куттс, Сара Митич

Описание:

За 10 лет до начала истории, описанной в оригинальном сериале «Звёздный путь», экипаж корабля USS Discovery NCC-1031 отправляется в путешествие, чтобы изучать глубокий космос и открыть новые миры и цивилизации.



Качество: WEB-DLRip
Формат: AVI

Видео: XviD, 720x320 (2.35:1), 23,976 fps, ~ 1600 kbps, 0.29 bit/pixel
Аудио 1: 48 kHz, AC3 Dolby Digital, 2/0 (L,R) ch, ~192 kbps|LostFilm|
Аудио 2: 48 kHz, AC3 Dolby Digital, 2/0 (L,R) ch, ~192 kbps


Реклама: Отсутствует
Format : AVI
Format/Info : Audio Video Interleave
File size : 869 MiB
Duration : 1h 0mn
Overall bit rate : 1 998 Kbps
Movie name : Звездный путь. Дискавери 2х01: Брат
Director : Бёдвар (WEB-DLRip)
Writing application : VirtualDubModRus 1.5.10.2 (build 2542/release)
Comment : 20.01.2019

Video
ID : 0
Format : MPEG-4 Visual
Format profile : Advanced Simple@L5
Format settings, BVOP : 1
Format settings, QPel : No
Format settings, GMC : No warppoints
Format settings, Matrix : Default (MPEG)
Codec ID : XVID
Codec ID/Hint : XviD
Duration : 1h 0mn
Bit rate : 1 600 Kbps
Width : 720 pixels
Height : 320 pixels
Display aspect ratio : 2.35:1
Frame rate : 23.976 (24000/1001) fps
Color space : YUV
Chroma subsampling : 4:2:0
Bit depth : 8 bits
Scan type : Progressive
Compression mode : Lossy
Bits/(Pixel*Frame) : 0.290
Stream size : 696 MiB (80%)
Writing library : XviD 67

Audio #1
ID : 1
Format : AC-3
Format/Info : Audio Coding 3
Mode extension : CM (complete main)
Format settings, Endianness : Big
Codec ID : 2000
Duration : 1h 0mn
Bit rate mode : Constant
Bit rate : 192 Kbps
Channel(s) : 2 channels
Channel positions : Front: L R
Sampling rate : 48.0 KHz
Frame rate : 31.250 fps (1536 spf)
Compression mode : Lossy
Stream size : 83.5 MiB (10%)
Alignment : Split accross interleaves
Interleave, duration : 42 ms (1.00 video frame)
Interleave, preload duratio : 500 ms

Audio #2
ID : 2
Format : AC-3
Format/Info : Audio Coding 3
Mode extension : CM (complete main)
Format settings, Endianness : Big
Codec ID : 2000
Duration : 1h 0mn
Bit rate mode : Constant
Bit rate : 192 Kbps
Channel(s) : 2 channels
Channel positions : Front: L R
Sampling rate : 48.0 KHz
Frame rate : 31.250 fps (1536 spf)
Compression mode : Lossy
Stream size : 83.5 MiB (10%)
Alignment : Split accross interleaves
Interleave, duration : 42 ms (1.00 video frame)
Interleave, preload duratio : 500 ms
скриншот  скриншот  скриншот  скриншот  
Внимание! Раздача ведётся путём добавления новых серий; при каждом добавлении создаётся новый торрент. Чтобы начать докачку новой серии,пользователям необходимо сделать следующее:
(1) остановить скачивание,
(2) удалить старый торрент у себя из клиента (старые серии удалять не надо),
(3) скачать новый торрент и запустить его у себя в клиенте вместо старого, при этом указать клиенту путь в старую папку куда и должнопроисходить скачивание новых серий.

Ваш клиент при этом должен произвести хеширование (проверку) старой папки (если не производит сам - помогите ему сделать это), и будет докачивать только те серии
которых у вас ещё нет. Старые серии при этом не удаляются, а продолжают раздаваться!

Eсли вы уже удалили старые серии, то предотвратить повторную закачку старых серий можно, отжав галочку в соответствующих местах при запуске нового торрента.

По возможности, желательно не удалять старые серии как можно дольше чтобы релизёр не столько продолжал раздавать старые серии, а смог сконцентрироваться на новых.
pb.wtf



Скачать Звёздный путь: Дискавери через торрент https://a.radikal.ru/a06/1901/52/ba7a09724312.jpg Скачать фильм Звёздный путь: Дискавери через торрент бесплантно в хорошем качестве Описание: За 10 лет до начала истории, описанной в оригинальном сериале «Звёздный путь», экипаж корабля USS Discovery NCC-1031 отправляется ... 8.9 10 8
Торрент: Зарегистрирован [2019-04-22 19:32] · скачан: 93 раз
Статус: √ проверено
Размер: 10.07 GB
Как cкачать? Как скачать Звёздный путь: Дискавери через торрент | qTorrent

% Раздел Тема Автор DL S | L
Зарубежные сериалы [ 49.44 GB ] Звёздный путь: Дискавери / Star Trek: Discovery / Сезон: 2 / Серии: 1-14 из 14 [2019 WEBRip 1080p] MVO [TVShows] bober100 Скачать
1 | 0
Зарубежные сериалы [ 22.85 GB ] Звёздный путь: Дискавери / Star Trek: Discovery / Сезон: 2 / Серии: 1-14 из 14 [2019 WEB-DL 720p] MVO [Jaskier] bober100 Скачать
1 | 0
Зарубежные сериалы [ 8.33 GB ] Звёздный путь: Дискавери / Star Trek: Discovery / Сезон: 2 / Серии: 1-14 из 14 [2019 WEB-DLRip] MVO [Jaskier] bober100 Скачать
1 | 0
Зарубежные сериалы [ 34.45 GB ] Звёздный путь: Дискавери / Star Trek: Discovery / Сезон: 2 / Серии: 1-14 из 14 [2019 WEB-DL-HEVC 1080p] MVO [SDI Media] bober100 Скачать
1 | 0
Зарубежные сериалы [ 8.6 GB ] Звёздный путь: Дискавери / Star Trek: Discovery / Сезон: 2 / Серии: 1-14 из 14 [2019 WEB-DLRip] MVO [SDI Media] bober100 Скачать
1 | 0
Зарубежные сериалы [ 28.23 GB ] Звёздный путь: Дискавери / Star Trek: Discovery / Сезон: 2 / Серии: 1-14 из 14 [2019 WEB-DL 1080p] MVO [SDI Media] bober100 Скачать
1 | 0

28-11-2019 20:33  

Отключить всю рекламу на сайте

    Дорогой пользователь! Огромная просьба, поблагодарите релизера, оцените раздачу и оставьте свои комментарий, если Вы скачали Звёздный путь: Дискавери через торрент бесплатно! Внесите свою лепту в развитие PiratBit!
    Комментировать посты могут только пользователи прошедшие не сложную регистрацию
    Показать сообщения:    

    Звёздный путь: Дискавери через торрент
    Скачать бесплатно Звёздный путь: Дискавери
    Звёздный путь: Дискавери скачать торрент
    Звёздный путь: Дискавери смотреть онлайн
    Cкачать фильм Звёздный путь: Дискавери бесплатно
    Звёздный путь: Дискавери скачать торрент в хорошем качестве
    Звёздный путь: Дискавери смотреть онлайн бесплатно в хорошем качестве


    Вы не можете начинать темы
    Вы не можете отвечать на сообщения
    Вы не можете редактировать свои сообщения
    Вы не можете удалять свои сообщения
    Вы не можете голосовать в опросах
    Вы не можете прикреплять файлы к сообщениям
    Вы можете скачивать файлы