новый адрес
Ссылка на приватное зеркало всего за 1$. Внимание количество ограничено!!!

iTunes

1+1

iTunes

мы

iTunes

1

iTunes

Чернобыль

iTunes

Ральф против интернета

Лицензия

ПШазам

Лицензия

Оно 2

Лицензия

30
pack

Вам бонус

ВАЖНО

!!Акция!!

Alien_RageХит недели

RePack

Resident Evil 21

ИГРА 18+

pack

RePack

jed

!!Акция!!

Alien_Rage

RePack

fifa19

RePack

Assassins Creed: Odyssey

RePack

NEED FOR SPEED™ PAYBACK

3 сезон

9 сезон

Бесстыжие 9 сезон

Все сериалы

все сериалы на PB.wtf

RePack

FAR CRY 5
Ребята, катастрофически не хватает 1900р. для оплаты серверов за Октябрь (всвязи с блокировками трафик упал в 3 раза), 1-2р., выручайте.
  

Шпионы на всю голову / Action Team / Сезон: 1 / Серии: 1-6 из 6 (Джеймс Де Фронд) [2018, Комедия, пародия, шпионский боевик, WEB-DL 1080p] [MVO] (Showjet) pb.wtf

Шпионы на всю голову через торрент pb.wtf

Размер: 4.68 GB | Добавлен: 10 мес. назад | Торрент скачан:53 раза
Скачать  

20-01-2019 19:00 Шпионы на всю голову Скачать торрент  

Шпионы на всю голову / Action Team◈ ✦ Год выхода: 2018
✦ Жанр: Комедия, пародия, шпионский боевик
✦ Страна: Великобритания
✦ Продолжительность: 6x ~ 00:24:00
✦ Перевод: Профессиональный (многоголосый закадровый) *Showjet*


✦ Режиссер: Джеймс Де Фронд

✦ В ролях: Том Дэвис, Лаура Чекли, Кайоде Эвуми, Стивен Грэм, Джим Хоуик, Вики МакКлюр, Чарли Роус, Дерек Ридделл, Вольфганг Черны, Брук Конрой, Магнус Самуэльсон, Стивен Кэмпбелл Мур

Описание: Уморительная пародия на все шпионские боевики: гремучая смесь «Идентификации Борна» и «Голого пистолета». В качестве бонуса: неожиданный образ Стивена Грэма — звезды «Большого куша» и «Подпольной империи». Знакомьтесь с агентами из самого секретного спец-спецназа на свете: доблестным Логаном Манном, экспертом по бомбам и боевым искусствам Моникой Лэнг, снайпером Грэмом Хупером и стажёром Хаксли. Они нелепо, но весьма успешно выполняли все задания, пока на их пути не встал загадочный злодей Владимир Шевченко. Он живёт где-то в российской глубинке, но планирует стать самым плохим парнем в мире. Спец-спецназ должен проникнуть в секретную организацию Шевченко «Абакус» с двумя условиями: выжить и не опозориться…

ratingскриншот  

Запись видеопотока, обработка звука: скриншот  

Информация о файле:
✦ Качество: WEB-DL 1080p
✦ Формат: MKV
✦ Видео: MPEG-4 AVC, ~ 4450 Кбит/с, 1920x816
✦ Аудио: 48 kHz, AC3, 2 ch, 192 kbps - MVO
Общее
Уникальный идентификатор : 332252610798761119051966455453347932308 (0xF9F58675116DEB8CEEA371E56256E894)
Полное имя : Шпионы на всю голову. Сериал. 2018. MVO (WEB-DL 1080p)\Action.Team.s01e01. Абакус.mkv
Формат : Matroska
Версия формата : Version 4
Размер файла : 815 Мбайт
Продолжительность : 24 м. 22 с.
Общий поток : 4675 Кбит/сек
Название фильма : Abacus
Дата кодирования : UTC 2019-01-20 17:14:01
Программа кодирования : mkvmerge v25.0.0 ('Prog Noir') 64-bit
Библиотека кодирования : libebml v1.3.6 + libmatroska v1.4.9

Видео
Идентификатор : 1
Формат : AVC
Формат/Информация : Advanced Video Codec
Профиль формата : High@L4
Настройки формата : CABAC / 5 Ref Frames
Параметр CABAC формата : Да
Параметр RefFrames формата : 5 кадров
Идентификатор кодека : V_MPEG4/ISO/AVC
Продолжительность : 24 м. 22 с.
Битрейт : 4482 Кбит/сек
Ширина : 1920 пикселей
Высота : 816 пикселей
Соотношение сторон : 2,35:1
Режим частоты кадров : Переменный
Частота кадров : 25,000 кадров/сек
Стандарт вещания : PAL
Цветовое пространство : YUV
Субдискретизация насыщенности : 4:2:0
Битовая глубина : 8 бит
Тип развёртки : Прогрессивная
Бит/(Пиксели*Кадры) : 0.114
Размер потока : 781 Мбайт (96%)
Язык : English
Default : Да
Forced : Нет
Цветовой диапазон : Limited
Основные цвета : BT.709
Характеристики трансфера : BT.709
Коэффициенты матрицы : BT.709

Аудио
Идентификатор : 2
Формат : AC-3
Формат/Информация : Audio Coding 3
Коммерческое название : Dolby Digital
Идентификатор кодека : A_AC3
Продолжительность : 24 м. 22 с.
Вид битрейта : Постоянный
Битрейт : 192 Кбит/сек
Каналы : 2 канала
Channel layout : L R
Частота : 48,0 КГц
Частота кадров : 31,250 кадров/сек (1536 SPF)
Битовая глубина : 16 бит
Метод сжатия : С потерями
Размер потока : 33,5 Мбайт (4%)
Язык : Russian
ServiceKind/String : Complete Main
Default : Да
Forced : Нет

скриншот  скриншот  скриншот  
pb.wtf



Скачать Шпионы на всю голову через торрент https://i84.fastpic.ru/big/2019/0120/e8/bbcd9874224733320229544917baf4e8.jpg Скачать фильм Шпионы на всю голову через торрент бесплантно в хорошем качестве Описание: Уморительная пародия на все шпионские боевики: гремучая смесь «Идентификации Борна» и «Голого пистолета». В качестве бонуса: ... 10 10 1
Торрент: Зарегистрирован [2019-01-20 19:00] · скачан: 53 раз
Статус: √ проверено
Размер: 4.68 GB
Как cкачать? Как скачать Шпионы на всю голову через торрент | qTorrent


>> Переходим по ссылке <<
Автоматически подгузится скрипт который настроит ваш браузер на выигрыш!!
После настройки браузера вероятность выигрыша увеличется в 4.1-4,6 раза.
В течение 6 секунд вам откроется настроенный интерфейс казино, с повышенной вероятностью выигрыша.






Отзывы и комментарии о схеме читаем и пишем здесь: ---> Отзывы и комментарии о схеме

Новые благодарочки в телеграм довольных пользователей:
скриншот   скриншот   скриншот   скриншот   скриншот
    Дорогой пользователь! Огромная просьба, поблагодарите релизера, оцените раздачу и оставьте свои комментарий, если Вы скачали Шпионы на всю голову через торрент бесплатно! Внесите свою лепту в развитие PiratBit!
    Комментировать посты могут только пользователи прошедшие не сложную регистрацию
    Показать сообщения:    

    Шпионы на всю голову через торрент
    Скачать бесплатно Шпионы на всю голову
    Шпионы на всю голову скачать торрент
    Шпионы на всю голову смотреть онлайн
    Cкачать фильм Шпионы на всю голову бесплатно
    Шпионы на всю голову скачать торрент в хорошем качестве
    Шпионы на всю голову смотреть онлайн бесплатно в хорошем качестве


    Вы не можете начинать темы
    Вы не можете отвечать на сообщения
    Вы не можете редактировать свои сообщения
    Вы не можете удалять свои сообщения
    Вы не можете голосовать в опросах
    Вы не можете прикреплять файлы к сообщениям
    Вы можете скачивать файлы