Ссылка на приватное зеркало нашего сайта всего за 1$. Внимание количество ограничено!!!

2 сезон

iTunes

1 сезон

1

2 сезон

2 сезон

iTunes

1 сезон

RePack

30

Новинка

ВАЖНО

ИГРА 18+

pack

RePack

MK11
pack

Забери бонус

RePack

jed

!!Акция!!

Alien_Rage

RePack

fifa19

RePack

Assassins Creed: Odyssey

RePack

NEED FOR SPEED™ PAYBACK

4 сезон

9 сезон

Бесстыжие 9 сезон

Все сериалы

все сериалы на PB.wtf

RePack

FAR CRY 5
  

Монк. Дефективный детектив / Monk / Сезон: 1 / Серии: 1-13 из 13 (Рэндолл Зиск, Джерри Ливайн, Андре Белградер) [2002, Драма, Комедия, Детектив , WEB-DL 1080p] 2xMVO [ТВ3, Первый канал] pb.wtf

Монк. Дефективный детектив через торрент pb.wtf

Размер: 59.12 GB | Добавлен: 1 год 10 мес. назад | Торрент скачан:7 раз
Скачать  

20-01-2019 19:10 Монк. Дефективный детектив Скачать торрент  

Монк. Дефективный детектив / Monk Год выпуска: 2002
Страна: США
Жанр: Драма, комедия, детектив
Продолжительность: ~00:44:00

Перевод: Профессиональный (многоголосый закадровый) | ТВ3
Перевод: Профессиональный (многоголосый закадровый) | Первый канал
Субтитры: Английские

Режиссёр: Рэндолл Зиск, Джерри Ливайн, Андре Белградер




В ролях:

Тони Шэлуб, Джейсон Грей-Стенфорд, Тед Левайн, Трейлор Ховард, Стенли Кэмел, Битти Шрэм, Эмми Кларк, Кейн Ритчотт, Гектор Элизондо, Мелора Хардин, Тим Бэгли, Макс Морроу, Джеррад Пол, Стеллина Русиш, Брук Эдамс, Майкл Коулмэн, Дэвид Стэнфорд, Гленн Хедли, Чет Гриссом, Дэвид Спэрроу

Описание:

Казалось, ничто не в силах помешать стремительному восхождению к вершинам карьеры детектива Эдриана Монка. Но нераскрытое убийство любимой жены — Труди — явилось слишком сильным ударом для суперпрофессионала. Пережитая драма повлекла за собой серьезные психологические расстройства, абсолютно несовместимые с работой в полиции. И службу пришлось оставить. Рядом с Монком теперь постоянно находится медсестра Шарона, которая пытается помочь ему восстановить утраченные душевные и физические силы. И постепенно Шарона становится для Монка кем-то вроде доктора Ватсона при Шерлоке Холмсе. А тем временем полицейский департамент бьется над раскрытием очередного запутанного дела и, в конце концов, осознает необходимость подключения Монка в качестве частного консультанта к расследованию.

Качество: WEB-DL 1080p
Контейнер: MKV

Видео: 1920x1080, 23.976 fps, MPEG-4 AVC, ~14600 kbps
Аудио Rus: AC3, 48.0 kHz, 2ch, 192 kbps | ТВ3
Аудио Rus: AC3, 48.0 kHz, 2ch, 192 kbps | Первый канал
Аудио Eng: E-AC3, 48.0 kHz, 2ch, 224 kbps


Картинка от комрада AJP69 с AMZN
Огромная благодарность miha2154 за предоставленные дорожки от ТВ3.
===========
S01E01-02: Первый канал имеет вставки от ТВ3 (00:33:21-00:33:23; 00:48:56-00:49:04)
S01E03: ТВ3 имеет вставку от Первого канала (00:19:17-00:20:37)
S01E05: ТВ3 имеет вставку от Первого канала (00:13:47-00:17:15)
S01E07: ТВ3 имеет вставку от Первого канала (00:25:12-00:25:32)
S01E08: Первый канал имеет вставку от ТВ3 (00:00:00-00:01:32)
===========
Продолжение следует...
01. Мистер Монк и Кандидат: Часть 1 / Mr. Monk and the Candidate: Part 1
02. Мистер Монк и Кандидат: Часть 2 / Mr. Monk and the Candidate: Part 2
03. Мистер Монк и Экстрасенс / Mr. Monk and the Psychic
04. Мистер Монк встречает долину китов / Mr. Monk Meets Dale the Whale
05. Мистер Монк идет на Карнавал / Mr. Monk Goes to the Carnival
06. Мистер Монк едет в Убежище / Mr. Monk Goes to the Asylum
07. Мистер Монк и Грабитель-миллиардер / Mr. Monk and the Billionaire Mugger
08. Мистер Монк и Другая Женщина / Mr. Monk and the Other Woman
09. Мистер Монк и Марафонец / Mr. Monk and the Marathon Man
10. Мистер Монк берет каникулы / Mr. Monk Takes a Vacation
11. Мистер Монк и Землетрясение / Mr. Monk and the Earthquake
12. Мистер Монк и Рыжеволосый Незнакомец / Mr. Monk and the Red-Headed Stranger
13. Мистер Монк и Самолет / Mr. Monk and the Airplane
Общее
Уникальный идентификатор : 286445383636011010121246189064500343187 (0xD77F5FCA1A8E98DA47EA138934A4F193)
Полное имя : H:\Monk.S01.1080p.WEB-DL.x264.(ТВ3,Первый канал)-ParovozN@EniaHD\Monk.S01E10.1080p.WEB-DL.x264.Rus.Eng.mkv
Формат : Matroska
Версия формата : Version 4
Размер файла : 4,70 Гбайт
Продолжительность : 44 м. 15 с.
Режим общего битрейта : Переменный
Общий поток : 15,2 Мбит/сек
Название фильма : Monk.S01E10.Mr.Monk.Takes.a.Vacation.1080p.WEB-DL.x264-AJP69-ParovozN
Дата кодирования : UTC 2018-12-05 11:04:35
Программа кодирования : mkvmerge v29.0.0 ('Like It Or Not') 64-bit
Библиотека кодирования : libebml v1.3.6 + libmatroska v1.4.9

Видео
Идентификатор : 1
Формат : AVC
Формат/Информация : Advanced Video Codec
Профиль формата : High@L4
Настройки формата : CABAC / 4 Ref Frames
Параметр CABAC формата : Да
Параметр RefFrames формата : 4 кадра
Идентификатор кодека : V_MPEG4/ISO/AVC
Продолжительность : 44 м. 15 с.
Вид битрейта : Переменный
Битрейт : 14,6 Мбит/сек
Максимальный битрейт : 15,0 Мбит/сек
Ширина : 1920 пикселей
Высота : 1080 пикселей
Соотношение сторон : 16:9
Режим частоты кадров : Постоянный
Частота кадров : 23,976 (24000/1001) кадра/сек
Цветовое пространство : YUV
Субдискретизация насыщенности : 4:2:0
Битовая глубина : 8 бит
Тип развёртки : Прогрессивная
Бит/(Пиксели*Кадры) : 0.293
Размер потока : 4,51 Гбайт (96%)
Библиотека кодирования : x264 core 148 r2623 d5b2374
Настройки программы : cabac=1 / ref=4 / deblock=1:-1:-1 / analyse=0x3:0x133 / me=umh / subme=9 / psy=1 / psy_rd=1.00:0.15 / mixed_ref=1 / me_range=24 / chroma_me=1 / trellis=2 / 8x8dct=1 / cqm=0 / deadzone=21,11 / fast_pskip=1 / chroma_qp_offset=-3 / threads=34 / lookahead_threads=5 / sliced_threads=0 / nr=150 / decimate=1 / interlaced=0 / bluray_compat=0 / constrained_intra=0 / bframes=8 / b_pyramid=2 / b_adapt=2 / b_bias=0 / direct=3 / weightb=1 / open_gop=0 / weightp=2 / keyint=120 / keyint_min=61 / scenecut=0 / intra_refresh=0 / rc_lookahead=120 / rc=crf / mbtree=1 / crf=18.0 / qcomp=0.60 / qpmin=0 / qpmax=69 / qpstep=4 / vbv_maxrate=15000 / vbv_bufsize=31250 / crf_max=0.0 / nal_hrd=vbr / filler=0 / ip_ratio=1.40 / aq=3:1.00
Default : Да
Forced : Нет
Цветовой диапазон : Limited
Основные цвета : BT.709
Характеристики трансфера : BT.709
Коэффициенты матрицы : BT.709

Аудио #1
Идентификатор : 2
Формат : AC-3
Формат/Информация : Audio Coding 3
Коммерческое название : Dolby Digital
Идентификатор кодека : A_AC3
Продолжительность : 44 м. 15 с.
Вид битрейта : Постоянный
Битрейт : 192 Кбит/сек
Каналы : 2 канала
Channel layout : L R
Частота : 48,0 КГц
Частота кадров : 31,250 кадров/сек (1536 SPF)
Битовая глубина : 16 бит
Метод сжатия : С потерями
Размер потока : 60,8 Мбайт (1%)
Заголовок : MVO (TB3)
Язык : Russian
ServiceKind/String : Complete Main
Default : Да
Forced : Нет

Аудио #2
Идентификатор : 3
Формат : AC-3
Формат/Информация : Audio Coding 3
Коммерческое название : Dolby Digital
Идентификатор кодека : A_AC3
Продолжительность : 44 м. 15 с.
Вид битрейта : Постоянный
Битрейт : 192 Кбит/сек
Каналы : 2 канала
Channel layout : L R
Частота : 48,0 КГц
Частота кадров : 31,250 кадров/сек (1536 SPF)
Битовая глубина : 16 бит
Метод сжатия : С потерями
Размер потока : 60,8 Мбайт (1%)
Заголовок : MVO (Первый канал)
Язык : Russian
ServiceKind/String : Complete Main
Default : Нет
Forced : Нет

Аудио #3
Идентификатор : 4
Формат : E-AC-3
Формат/Информация : Enhanced AC-3
Коммерческое название : Dolby Digital Plus
Идентификатор кодека : A_EAC3
Продолжительность : 44 м. 15 с.
Вид битрейта : Постоянный
Битрейт : 224 Кбит/сек
Каналы : 2 канала
Channel layout : L R
Частота : 48,0 КГц
Частота кадров : 31,250 кадров/сек (1536 SPF)
Метод сжатия : С потерями
Размер потока : 70,9 Мбайт (1%)
Язык : English
ServiceKind/String : Complete Main
Default : Нет
Forced : Нет

Текст
Идентификатор : 5
Формат : UTF-8
Идентификатор кодека : S_TEXT/UTF8
Идентификатор кодека/Информация : UTF-8 Plain Text
Продолжительность : 43 м. 23 с.
Битрейт : 78 бит/сек
ElementCount : 943
Размер потока : 24,9 Кбайт (0%)
Язык : English
Default : Нет
Forced : Нет
pb.wtf



Скачать Монк. Дефективный детектив через торрент http://funkyimg.com/i/2NXeo.jpg Скачать фильм Монк. Дефективный детектив через торрент бесплантно в хорошем качестве Описание: Казалось, ничто не в силах помешать стремительному восхождению к вершинам карьеры детектива Эдриана Монка. Но нераскрытое ... 7 10 3
Info! Золотая раздача, скачанное не засчитывается.
Торрент: Зарегистрирован [2019-01-20 19:10] · скачан: 7 раз
Статус: √ проверено
Размер: 59.12 GB
Как cкачать? Как скачать Монк. Дефективный детектив через торрент | qTorrent

28-11-2019 20:33  

Отключить всю рекламу на сайте

    Дорогой пользователь! Огромная просьба, поблагодарите релизера, оцените раздачу и оставьте свои комментарий, если Вы скачали Монк. Дефективный детектив через торрент бесплатно! Внесите свою лепту в развитие PiratBit!
    Комментировать посты могут только пользователи прошедшие не сложную регистрацию
    Показать сообщения:    

    Монк. Дефективный детектив через торрент
    Скачать бесплатно Монк. Дефективный детектив
    Монк. Дефективный детектив скачать торрент
    Монк. Дефективный детектив смотреть онлайн
    Cкачать фильм Монк. Дефективный детектив бесплатно
    Монк. Дефективный детектив скачать торрент в хорошем качестве
    Монк. Дефективный детектив смотреть онлайн бесплатно в хорошем качестве


    Вы не можете начинать темы
    Вы не можете отвечать на сообщения
    Вы не можете редактировать свои сообщения
    Вы не можете удалять свои сообщения
    Вы не можете голосовать в опросах
    Вы не можете прикреплять файлы к сообщениям
    Вы можете скачивать файлы