Ссылка на приватное зеркало нашего сайта всего за 1$. Внимание количество ограничено!!!

2 сезон

iTunes

1 сезон

1

2 сезон

2 сезон

iTunes

1 сезон

RePack

30

Ultimate

ВАЖНО

ИГРА 18+

pack

RePack

MK11
pack

Забери бонус

RePack

jed

!!Акция!!

Alien_Rage

RePack

fifa19

RePack

Assassins Creed: Odyssey

RePack

NEED FOR SPEED™ PAYBACK

4 сезон

9 сезон

Бесстыжие 9 сезон

Все сериалы

все сериалы на PB.wtf

RePack

FAR CRY 5
  

Бремя истины / Burden of Truth / Сезон: 1 / Серии: 1-10 из 10 (Джордан Каннинг, Джеймс Дженн, Грант Харви) [2018, Драма, WEB-DLRip] MVO [Jaskier] pb.wtf

Бремя истины через торрент pb.wtf

Раздают: 1 [ 0 KB/s ]
Размер: 5.38 GB | Добавлен: 1 год 10 мес. назад | Торрент скачан:30 раз
Скачать  

20-01-2019 20:47 Бремя истины Скачать торрент  

Бремя истины | Burden of Truth • Год выпуска: 2018
• Страна: Канада
• Жанр: Драма
• Продолжительность: ~ 00:43:00
• Перевод: Профессиональный (многоголосый закадровый) | Jaskier
• Субтитры: отсутствуют

• Режиссёр: Джордан Каннинг, Джеймс Дженн, Грант Харви

• В ролях:

Питер Муни, Кристин Крук, Стар Слейд, Никола Коррейя-Дамуд, Мигвун Фэйрбразер, Сара Томпсон, Дэвид Браун, Анвен О’Дрискол и др.

• Описание:

Крупный адвокат Джоанна Хэнли возвращается в свой родной город, чтобы вести дело нескольких девушек, страдающих таинственной болезнью.

rating

• Качество: WEB-DLRip
• Формат: AVI

• Видео: XviD, 720x400 (16:9), 29.970 fps, ~1400 kbps
• Аудио #1: MP3, 48 kHz, 2 ch, 128 kbps, CBR - RUS
• Аудио #2: MP3, 48 kHz, 2 ch, 128 kbps, CBR - ENG


• Реклама: Присутствует звуковая (два раза в начале и конце по 10 сек.)
Переведено и озвучено студией JASKIER
Общее
Полное имя                               : H:\Ясы-сериалы\Burden Of Truth. Season 1 (WEB-DLRip l 400p l Jaskier)\Burden.Of.Truth.S01E10.WEB-DLRip.Rus.Eng.Jaskier.avi
Формат                                   : AVI
Формат/Информация                        : Audio Video Interleave
Размер файла                             : 551 Мбайт
Продолжительность                        : 44 м. 10 с.
Общий поток                              : 1745 Кбит/сек
Программа кодирования                    : VirtualDubMod 1.5.10.3 | www.virtualdub-fr.org || (build 2550/release)
Библиотека кодирования                   : VirtualDubMod build 2550/release

Видео
Идентификатор                            : 0
Формат                                   : MPEG-4 Visual
Профиль формата                          : Advanced Simple@L5
Настройки формата                        : BVOP1 / Custom Matrix
Параметр BVOP формата                    : 1
Параметр QPel формата                    : Нет
Параметр GMC формата                     : Без точки перехода
Параметр матрицы формата                 : Выборочная
Идентификатор кодека                     : XVID
Идентификатор кодека/Подсказка           : XviD
Продолжительность                        : 44 м. 10 с.
Битрейт                                  : 1471 Кбит/сек
Ширина                                   : 720 пикселей
Высота                                   : 400 пикселей
Соотношение сторон                       : 16:9
Частота кадров                           : 29,970 (30000/1001) кадров/сек
Цветовое пространство                    : YUV
Субдискретизация насыщенности            : 4:2:0
Битовая глубина                          : 8 бит
Тип развёртки                            : Прогрессивная
Метод сжатия                             : С потерями
Бит/(Пиксели*Кадры)                      : 0.170
Размер потока                            : 465 Мбайт (84%)
Библиотека кодирования                   : XviD 73

Аудио #1
Идентификатор                            : 1
Формат                                   : MPEG Audio
Версия формата                           : Version 1
Профиль формата                          : Layer 3
Настройки формата                        : Joint stereo / MS Stereo
Идентификатор кодека                     : 55
Идентификатор кодека/Подсказка           : MP3
Продолжительность                        : 44 м. 10 с.
Вид битрейта                             : Постоянный
Битрейт                                  : 128 Кбит/сек
Каналы                                   : 2 канала
Частота                                  : 48,0 КГц
Метод сжатия                             : С потерями
Размер потока                            : 40,4 Мбайт (7%)
Выравнивание                             : Соединение по промежуткам
Продолжительность промежутка             : 33  мс. (1,00 видеокадр)
Время предзагрузки промежутка            : 504  мс.

Аудио #2
Идентификатор                            : 2
Формат                                   : MPEG Audio
Версия формата                           : Version 1
Профиль формата                          : Layer 3
Настройки формата                        : Joint stereo / MS Stereo
Идентификатор кодека                     : 55
Идентификатор кодека/Подсказка           : MP3
Продолжительность                        : 44 м. 10 с.
Вид битрейта                             : Постоянный
Битрейт                                  : 128 Кбит/сек
Каналы                                   : 2 канала
Частота                                  : 48,0 КГц
Метод сжатия                             : С потерями
Размер потока                            : 40,4 Мбайт (7%)
Выравнивание                             : Соединение по промежуткам
Продолжительность промежутка             : 33  мс. (1,00 видеокадр)
Время предзагрузки промежутка            : 504  мс.
скриншот  скриншот  скриншот  
pb.wtf



Скачать Бремя истины через торрент http://i104.fastpic.ru/big/2018/0515/2d/9362d59cf71f34cc17d81f5e41e8662d.png Скачать фильм Бремя истины через торрент бесплантно в хорошем качестве Описание: Крупный адвокат Джоанна Хэнли возвращается в свой родной город, чтобы вести дело нескольких девушек, страдающих таинственной ... 10 10 3
Торрент: Зарегистрирован [2019-01-20 20:47] · скачан: 30 раз
Статус: √ проверено
Размер: 5.38 GB
Как cкачать? Как скачать Бремя истины через торрент | qTorrent

% Раздел Тема Автор DL S | L
Зарубежные сериалы [ 17.03 GB ] Бремя истины / Burden of Truth / Сезон: 2 / Серии: 1-8 из 8 [2019 WEBRip 1080p] MVO [TVShows] bober100 Скачать
1 | 0
Зарубежные сериалы [ 16.18 GB ] Бремя истины / Burden of Truth / Сезон: 2 / Серии: 1-8 из 8 [2019 WEB-DL 1080p] MVO [Jaskier] bober100 Скачать
1 | 0
Зарубежные сериалы [ 20.74 GB ] Бремя истины / Burden of Truth / Сезон: 1 / Серии: 1-10 из 10 [2018 WEB-DL 1080p] MVO [Jaskier] bober100 Скачать
1 | 0

28-11-2019 20:33  

Отключить всю рекламу на сайте

    Дорогой пользователь! Огромная просьба, поблагодарите релизера, оцените раздачу и оставьте свои комментарий, если Вы скачали Бремя истины через торрент бесплатно! Внесите свою лепту в развитие PiratBit!
    Комментировать посты могут только пользователи прошедшие не сложную регистрацию
    Показать сообщения:    

    Бремя истины через торрент
    Скачать бесплатно Бремя истины
    Бремя истины скачать торрент
    Бремя истины смотреть онлайн
    Cкачать фильм Бремя истины бесплатно
    Бремя истины скачать торрент в хорошем качестве
    Бремя истины смотреть онлайн бесплатно в хорошем качестве


    Вы не можете начинать темы
    Вы не можете отвечать на сообщения
    Вы не можете редактировать свои сообщения
    Вы не можете удалять свои сообщения
    Вы не можете голосовать в опросах
    Вы не можете прикреплять файлы к сообщениям
    Вы можете скачивать файлы