Ссылка на приватное зеркало нашего сайта всего за 1$. Внимание количество ограничено!!!

2 сезон

iTunes

1 сезон

1

2 сезон

2 сезон

iTunes

1 сезон

RePack

30

Новинка

ВАЖНО

ИГРА 18+

pack

RePack

MK11
pack

Забери бонус

RePack

jed

!!Акция!!

Alien_Rage

RePack

fifa19

RePack

Assassins Creed: Odyssey

RePack

NEED FOR SPEED™ PAYBACK

4 сезон

9 сезон

Бесстыжие 9 сезон

Все сериалы

все сериалы на PB.wtf

RePack

FAR CRY 5
  

Орвилл / The Orville / Сезон: 2 / Серии: 1-14 из 14 (Брэннон Брага, Джон Кассар, Джеймс Л. Конуэй) [2019, фантастика, драма, комедия, WEB-DLRip] [MVO] (AlexFilm) pb.wtf

Орвилл через торрент pb.wtf

Качают: 1 [ 0 KB/s ]
Размер: 7.99 GB | Добавлен: 10 мес. назад | Торрент скачан:0 раз
Скачать  

18-01-2019 12:51 Орвилл Скачать торрент  



Орвилл / The Orville


Год выпуска: 2019
Страна: США
Жанр: Фантастика, драма, комедия
Продолжительность: ~00:45:00
Озвучание: Профессиональное (многоголосое, закадровое) (AlexFilm)
Режиссер: Брэннон Брага, Джон Кассар, Джеймс Л. Конуэй

В ролях: Сет МакФарлейн, Скотт Граймз, Пенни Джонсон, Питер Макон, Эдрианн Палики, Холстон Сейдж, Ларри Джо Кэмпбелл, Норм МакДональд и др.
Описание: Действие сериала разверачивается через 300 лет в будущем, а сюжет закручивается вокруг экипажа Орвилла - не самого передового корабля межзвездного флота Земли. Разношерстный экипаж Орвилла смело шагнет навстречу космическим вызовам, туда, где еще не ступала нога ни одной комедии.
Релиз:

Перевод: Александр Лазарев
Монтаж и сведение звука: Михаил Суслов, Михаил Шорыгин
Роли озвучивали:
    • Маргарита Корш
    • Татьяна Манетина
    • Петр Гланц
    • Кирилл Патрино
    • Константин Федосеев
    • Михаил Суслов

Сэмпл: http://sendfile.su/1467627
rating
Качество: WEB-DLRip
Формат: AVI
Видео: 720x400 (16:9), 23.976 fps, XviD ~1400 kbps avg, 0.199 bit/pixel
Аудио Rus: 48 kHz, MPEG Layer 3, 2 ch, ~128.00 kbps avg
Аудио Eng: 48 kHz, MPEG Layer 3, 2 ch, ~128.00 kbps avg
Субтитры: нет
скриншот  скриншот  скриншот  скриншот  
Формат : AVI
Формат/Информация : Audio Video Interleave
Размер файла : 570 Мбайт
Продолжительность : 48 м. 32 с.
Общий поток : 1642 Кбит/сек
Название фильма : The Orville 2x01 @ AlexFilm
Программа кодирования : VirtualDubMod 1.5.10.2 (build 2540/release)
Библиотека кодирования : VirtualDubMod build 2540/release

Видео
Идентификатор : 0
Формат : MPEG-4 Visual
Профиль формата : Advanced Simple@L5
Параметр BVOP формата : Нет
Параметр QPel формата : Нет
Параметр GMC формата : Без точки перехода
Параметр матрицы формата : Default (MPEG)
Идентификатор кодека : XVID
Идентификатор кодека/Подсказка : XviD
Продолжительность : 48 м. 32 с.
Битрейт : 1372 Кбит/сек
Ширина : 720 пикселей
Высота : 400 пикселей
Соотношение сторон : 16:9
Частота кадров : 23,976 (23976/1000) кадра/сек
Цветовое пространство : YUV
Субдискретизация насыщенности : 4:2:0
Битовая глубина : 8 бит
Тип развёртки : Прогрессивная
Метод сжатия : С потерями
Бит/(Пиксели*Кадры) : 0.199
Размер потока : 476 Мбайт (84%)
Библиотека кодирования : XviD 67

Аудио #1
Идентификатор : 1
Формат : MPEG Audio
Версия формата : Version 1
Профиль формата : Layer 3
Режим : Joint stereo
Расширение режима : MS Stereo
Идентификатор кодека : 55
Идентификатор кодека/Подсказка : MP3
Продолжительность : 48 м. 32 с.
Вид битрейта : Постоянный
Битрейт : 128 Кбит/сек
Каналы : 2 канала
Частота : 48,0 КГц
Метод сжатия : С потерями
Размер потока : 44,4 Мбайт (8%)
Выравнивание : Соединение по промежуткам
Продолжительность промежутка : 42 мс. (1,00 видеокадр)
Время предзагрузки промежутка : 504 мс.
Заголовок : Russian (AlexFilm)
Библиотека кодирования : LAME3.99.5Є

Аудио #2
Идентификатор : 2
Формат : MPEG Audio
Версия формата : Version 1
Профиль формата : Layer 3
Режим : Joint stereo
Расширение режима : MS Stereo
Идентификатор кодека : 55
Идентификатор кодека/Подсказка : MP3
Продолжительность : 48 м. 32 с.
Вид битрейта : Постоянный
Битрейт : 128 Кбит/сек
Каналы : 2 канала
Частота : 48,0 КГц
Метод сжатия : С потерями
Размер потока : 44,4 Мбайт (8%)
Выравнивание : Соединение по промежуткам
Продолжительность промежутка : 42 мс. (1,00 видеокадр)
Время предзагрузки промежутка : 504 мс.
Заголовок : English
Внимание! Раздача ведётся путём добавления новых серий; при каждом добавлении создаётся новый торрент. Чтобы начать докачку новой серии, пользователям необходимо сделать следующее:
(1) остановить скачивание,
(2) удалить старый торрент у себя из клиента (старые серии удалять не надо),
(3) скачать новый торрент и запустить его у себя в клиенте вместо старого, при этом указать клиенту путь в старую папку куда и должно происходить скачивание новых серий.
Ваш клиент при этом должен произвести хеширование (проверку) старой папки (если не производит сам - помогите ему сделать это), и будет докачивать только те серии которых у вас ещё нет. Старые серии при этом не удаляются, а продолжают раздаваться!
Eсли вы уже удалили старые серии, то предотвратить повторную закачку старых серий можно, отжав галочку в соответствующих местах при запуске нового торрента. По возможности, желательно не удалять старые серии как можно дольше чтобы релизёр не столько продолжал раздавать старые серии, а смог сконцентрироваться на новых.
pb.wtf



Скачать Орвилл через торрент http://i91.fastpic.ru/big/2017/0913/9a/1d9bdcd438e347ca6693ad80d090909a.jpg Скачать фильм Орвилл через торрент бесплантно в хорошем качестве Описание: Действие сериала разверачивается через 300 лет в будущем, а сюжет закручивается вокруг экипажа Орвилла - не самого передового ... 10 10 1
Торрент: Зарегистрирован [2020-01-06 08:43] · скачан: 0 раз
Статус: √ проверено
Размер: 7.99 GB
Как cкачать? Как скачать Орвилл через торрент | qTorrent

% Раздел Тема Автор DL S | L
Зарубежные сериалы [ 47.6 GB ] Орвилл / The Orville / Сезон: 2 / Серии: 1-14 из 14 [2018 WEB-DL 1080p] MVO [TVShows] bober100 Скачать
1 | 0
Зарубежные сериалы [ 21.18 GB ] Орвилл / The Orville / Сезон: 2 / Серии: 1-14 из 14 [2019 WEB-DL 720p] [MVO] killermax2013 Скачать
1 | 0
Зарубежные сериалы [ 8.42 GB ] Орвилл / The Orville / Сезон: 2 / Серии: 1-14 из 14 [2018 WEBRip] MVO [LostFilm] bober100 Скачать
2 | 0
Зарубежные сериалы [ 48.94 GB ] Орвилл / The Orville / Сезон: 2 / Серии: 1-14 из 14 [2018 WEB-DL 1080p] MVO [Amedia] bober100 Скачать
1 | 0
Зарубежные сериалы [ 18.49 GB ] Орвилл / The Orville / Сезон: 2 / Серии: 1-12 из 14 [2019 WEB-DL 720p] [MVO] killermax2013 Скачать
1 | 0

28-11-2019 20:33  

Отключить всю рекламу на сайте

    Дорогой пользователь! Огромная просьба, поблагодарите релизера, оцените раздачу и оставьте свои комментарий, если Вы скачали Орвилл через торрент бесплатно! Внесите свою лепту в развитие PiratBit!
    Комментировать посты могут только пользователи прошедшие не сложную регистрацию
    Показать сообщения:    

    Орвилл через торрент
    Скачать бесплатно Орвилл
    Орвилл скачать торрент
    Орвилл смотреть онлайн
    Cкачать фильм Орвилл бесплатно
    Орвилл скачать торрент в хорошем качестве
    Орвилл смотреть онлайн бесплатно в хорошем качестве


    Вы не можете начинать темы
    Вы не можете отвечать на сообщения
    Вы не можете редактировать свои сообщения
    Вы не можете удалять свои сообщения
    Вы не можете голосовать в опросах
    Вы не можете прикреплять файлы к сообщениям
    Вы можете скачивать файлы