Ссылка на приватное зеркало нашего сайта всего за 1$. Внимание количество ограничено!!!

2 сезон

iTunes

1 сезон

1

2 сезон

2 сезон

iTunes

1 сезон

RePack

30

Новинка

ВАЖНО

ИГРА 18+

pack

RePack

MK11
pack

Забери бонус

RePack

jed

!!Акция!!

Alien_Rage

RePack

fifa19

RePack

Assassins Creed: Odyssey

RePack

NEED FOR SPEED™ PAYBACK

4 сезон

9 сезон

Бесстыжие 9 сезон

Все сериалы

все сериалы на PB.wtf

RePack

FAR CRY 5
  

Орвилл / The Orville / Сезон: 2 / Серии: 1-14 из 14 (Брэннон Брага, Джон Кассар, Джеймс Л. Конуэй) [2019, фантастика, драма, комедия, WEB-DL 720p] [MVO] (AlexFilm) pb.wtf

Орвилл через торрент pb.wtf

Размер: 21.18 GB | Добавлен: 10 мес. назад | Торрент скачан:3 раза
Скачать  

18-01-2019 12:45 Орвилл Скачать торрент  



Орвилл / The Orville


Год выпуска: 2019
Страна: США
Жанр: Фантастика, драма, комедия
Продолжительность: ~00:45:00
Озвучание: Профессиональное (многоголосое, закадровое) (AlexFilm)
Режиссер: Брэннон Брага, Джон Кассар, Джеймс Л. Конуэй

В ролях: Сет МакФарлейн, Скотт Граймз, Пенни Джонсон, Питер Макон, Эдрианн Палики, Холстон Сейдж, Ларри Джо Кэмпбелл, Норм МакДональд и др.
Описание: Действие сериала разверачивается через 300 лет в будущем, а сюжет закручивается вокруг экипажа Орвилла - не самого передового корабля межзвездного флота Земли. Разношерстный экипаж Орвилла смело шагнет навстречу космическим вызовам, туда, где еще не ступала нога ни одной комедии.
Релиз:

Перевод: Александр Лазарев
Монтаж и сведение звука: Михаил Суслов, Михаил Шорыгин
Роли озвучивали:
    • Маргарита Корш
    • Татьяна Манетина
    • Петр Гланц
    • Кирилл Патрино
    • Константин Федосеев
    • Михаил Суслов

Сэмпл: http://sendfile.su/1467638
rating
Качество: WEB-DL 720p
Формат: MKV
Видео: 1280x720, 23.976 fps, MPEG-4 AVC ~2000 kbps avg, 0.082 bit/pixel
Аудио Rus: 48 kHz, AC3 Dolby Digital, 3/2 (L,C,R,l,r) + LFE ch, ~384.00 kbps
Аудио Eng: 48 kHz, AC3 Dolby Digital, 3/2 (L,C,R,l,r) + LFE ch, ~384.00 kbps
Субтитры: нет
скриншот  скриншот  скриншот  скриншот  
Формат : Matroska
Версия формата : Version 4 / Version 2
Размер файла : 892 Мбайт
Продолжительность : 48 м. 25 с.
Общий поток : 2576 Кбит/сек
Название фильма : The Orville 2x01 @ AlexFilm
Дата кодирования : UTC 2019-01-07 22:50:52
Программа кодирования : mkvmerge v7.9.0 ('Birds') 64bit
Библиотека кодирования : libebml v1.3.1 + libmatroska v1.4.2

Видео
Идентификатор : 1
Формат : AVC
Формат/Информация : Advanced Video Codec
Профиль формата : High@L3.1
Параметр CABAC формата : Да
Параметр ReFrames формата : 5 кадров
Идентификатор кодека : V_MPEG4/ISO/AVC
Продолжительность : 48 м. 25 с.
Битрейт : 1806 Кбит/сек
Ширина : 1280 пикселей
Высота : 720 пикселей
Соотношение сторон : 16:9
Режим частоты кадров : Постоянный
Частота кадров : 23,976 (24000/1001) кадра/сек
Цветовое пространство : YUV
Субдискретизация насыщенности : 4:2:0
Битовая глубина : 8 бит
Тип развёртки : Прогрессивная
Бит/(Пиксели*Кадры) : 0.082
Размер потока : 626 Мбайт (70%)
Язык : English
Default : Да
Forced : Нет
Цветовой диапазон : Limited
Основные цвета : BT.709
Характеристики трансфера : BT.709
Коэффициенты матрицы : BT.709

Аудио #1
Идентификатор : 2
Формат : AC-3
Формат/Информация : Audio Coding 3
Расширение режима : CM (complete main)
Параметр Endianness формата : Big
Идентификатор кодека : A_AC3
Продолжительность : 48 м. 25 с.
Вид битрейта : Постоянный
Битрейт : 384 Кбит/сек
Каналы : 6 каналов
Расположение каналов : Front: L C R, Side: L R, LFE
Частота : 48,0 КГц
Частота кадров : 31,250 кадров/сек (1536 spf)
Метод сжатия : С потерями
Размер потока : 133 Мбайт (15%)
Заголовок : DD5.1 AlexFilm
Язык : Russian
Default : Да
Forced : Нет

Аудио #2
Идентификатор : 3
Формат : AC-3
Формат/Информация : Audio Coding 3
Расширение режима : CM (complete main)
Параметр Endianness формата : Big
Идентификатор кодека : A_AC3
Продолжительность : 48 м. 25 с.
Вид битрейта : Постоянный
Битрейт : 384 Кбит/сек
Каналы : 6 каналов
Расположение каналов : Front: L C R, Side: L R, LFE
Частота : 48,0 КГц
Частота кадров : 31,250 кадров/сек (1536 spf)
Метод сжатия : С потерями
Размер потока : 133 Мбайт (15%)
Заголовок : DD5.1 Original
Язык : English
Default : Нет
Forced : Нет
Внимание! Раздача ведётся путём добавления новых серий; при каждом добавлении создаётся новый торрент. Чтобы начать докачку новой серии, пользователям необходимо сделать следующее:
(1) остановить скачивание,
(2) удалить старый торрент у себя из клиента (старые серии удалять не надо),
(3) скачать новый торрент и запустить его у себя в клиенте вместо старого, при этом указать клиенту путь в старую папку куда и должно происходить скачивание новых серий.
Ваш клиент при этом должен произвести хеширование (проверку) старой папки (если не производит сам - помогите ему сделать это), и будет докачивать только те серии которых у вас ещё нет. Старые серии при этом не удаляются, а продолжают раздаваться!
Eсли вы уже удалили старые серии, то предотвратить повторную закачку старых серий можно, отжав галочку в соответствующих местах при запуске нового торрента. По возможности, желательно не удалять старые серии как можно дольше чтобы релизёр не столько продолжал раздавать старые серии, а смог сконцентрироваться на новых.
pb.wtf



Скачать Орвилл через торрент http://i91.fastpic.ru/big/2017/0913/9a/1d9bdcd438e347ca6693ad80d090909a.jpg Скачать фильм Орвилл через торрент бесплантно в хорошем качестве Описание: Действие сериала разверачивается через 300 лет в будущем, а сюжет закручивается вокруг экипажа Орвилла - не самого передового ... 10 10 3
Торрент: Зарегистрирован [2020-01-06 08:44] · скачан: 3 раз
Статус: √ проверено
Размер: 21.18 GB
Как cкачать? Как скачать Орвилл через торрент | qTorrent

% Раздел Тема Автор DL S | L
Зарубежные сериалы [ 47.6 GB ] Орвилл / The Orville / Сезон: 2 / Серии: 1-14 из 14 [2018 WEB-DL 1080p] MVO [TVShows] bober100 Скачать
1 | 0
Зарубежные сериалы [ 7.99 GB ] Орвилл / The Orville / Сезон: 2 / Серии: 1-14 из 14 [2019 WEB-DLRip] [MVO] killermax2013 Скачать
1 | 0
Зарубежные сериалы [ 8.42 GB ] Орвилл / The Orville / Сезон: 2 / Серии: 1-14 из 14 [2018 WEBRip] MVO [LostFilm] bober100 Скачать
2 | 0
Зарубежные сериалы [ 48.94 GB ] Орвилл / The Orville / Сезон: 2 / Серии: 1-14 из 14 [2018 WEB-DL 1080p] MVO [Amedia] bober100 Скачать
1 | 0
Зарубежные сериалы [ 18.49 GB ] Орвилл / The Orville / Сезон: 2 / Серии: 1-12 из 14 [2019 WEB-DL 720p] [MVO] killermax2013 Скачать
1 | 0

28-11-2019 20:33  

Отключить всю рекламу на сайте

    Дорогой пользователь! Огромная просьба, поблагодарите релизера, оцените раздачу и оставьте свои комментарий, если Вы скачали Орвилл через торрент бесплатно! Внесите свою лепту в развитие PiratBit!
    Комментировать посты могут только пользователи прошедшие не сложную регистрацию
    Показать сообщения:    

    Орвилл через торрент
    Скачать бесплатно Орвилл
    Орвилл скачать торрент
    Орвилл смотреть онлайн
    Cкачать фильм Орвилл бесплатно
    Орвилл скачать торрент в хорошем качестве
    Орвилл смотреть онлайн бесплатно в хорошем качестве


    Вы не можете начинать темы
    Вы не можете отвечать на сообщения
    Вы не можете редактировать свои сообщения
    Вы не можете удалять свои сообщения
    Вы не можете голосовать в опросах
    Вы не можете прикреплять файлы к сообщениям
    Вы можете скачивать файлы