Ссылка на приватное зеркало нашего сайта всего за 1$. Внимание количество ограничено!!!

2 сезон

iTunes

1 сезон

1

2 сезон

2 сезон

iTunes

1 сезон

RePack

30

Ultimate

ВАЖНО

ИГРА 18+

pack

RePack

MK11
pack

Забери бонус

RePack

jed

!!Акция!!

Alien_Rage

RePack

fifa19

RePack

Assassins Creed: Odyssey

RePack

NEED FOR SPEED™ PAYBACK

4 сезон

9 сезон

Бесстыжие 9 сезон

Все сериалы

все сериалы на PB.wtf

RePack

FAR CRY 5
  

Пьяная история / Бухая история / Drunk History / Сезон 6 / Серии 1-16 из 16 (Derek Waters / Дерек Уотерс) [2019, комедия, WEBRip] [MVO] (Jaskier) pb.wtf

Пьяная история через торрент pb.wtf

Размер: 4.07 GB | Добавлен: 10 мес. назад | Торрент скачан:2 раза
Скачать  

21-01-2019 15:29 Пьяная история Скачать торрент  

Пьяная история / Drunk History

Год выпуска: 2019
Страна: США
Жанр: комедия
Продолжительность: ~ 00:22:00
Перевод: Профессиональный (многоголосый закадровый) | Jaskier

Режиссёр: Дерек Уотерс

В ролях: Джек Блэк, Стивен Мерчант, Дейв Грол, Майкл Сера, Вайнона Райдер, Люк Уилсон, Оуэн Уилсон, Джейсон Шварцман, Альфред Молина, Зои Дешанель, Уилл Ферелл, Кристен Уиг

Описание: «Бухая история» — это хулиганский проект вебсайта Funny or Die, который Comedy Central превратил в полноценное телешоу. Рассказчики в разной степени опьянения пытаются пересказать известные исторические события, а различные голливудские знаменитости этот бред инсценируют, открывая рты под авторские реплики.



Качество: WEBRip
Формат: AVI
Видео: XviD, ~ 1400 Кбит/с, 720x400
Аудио 1: MP3, 48,0 КГц, 2 ch, 128 kbps - Rus
Аудио 2: MP3, 48,0 КГц, 2 ch, 128 kbps - Eng
Субтитры: отсутствуют
General
Complete name : F:\Drunk.History. Season 6 (WEB l 400p l Jaskier)\drunk.history.s06e01.400p.Jaskier.avi
Format : AVI
Format/Info : Audio Video Interleave
File size : 254 MiB
Duration : 21 min 14 s
Overall bit rate : 1 670 kb/s
Writing application : VirtualDubMod 1.5.10.3 | www.virtualdub-fr.org || (build 2550/release)
Writing library : VirtualDubMod build 2550/release

Video
ID : 0
Format : MPEG-4 Visual
Format profile : Advanced Simple@L5
Format settings : BVOP2 / Custom Matrix
Format settings, BVOP : 2
Format settings, QPel : No
Format settings, GMC : No warppoints
Format settings, Matrix : Custom
Codec ID : XVID
Codec ID/Hint : XviD
Duration : 21 min 14 s
Bit rate : 1 337 kb/s
Width : 720 pixels
Height : 400 pixels
Display aspect ratio : 16:9
Frame rate : 23.976 (24000/1001) FPS
Color space : YUV
Chroma subsampling : 4:2:0
Bit depth : 8 bits
Scan type : Progressive
Compression mode : Lossy
Bits/(Pixel*Frame) : 0.194
Stream size : 203 MiB (80%)
Writing library : XviD 73

Audio #1
ID : 1
Format : MPEG Audio
Format version : Version 1
Format profile : Layer 3
Format settings : Joint stereo / MS Stereo
Mode : Joint stereo
Mode extension : MS Stereo
Codec ID : 55
Codec ID/Hint : MP3
Duration : 21 min 14 s
Bit rate mode : Constant
Bit rate : 128 kb/s
Channel(s) : 2 channels
Sampling rate : 48.0 kHz
Compression mode : Lossy
Stream size : 19.5 MiB (8%)
Alignment : Aligned on interleaves

Audio #2
ID : 2
Format : MPEG Audio
Format version : Version 1
Format profile : Layer 3
Format settings : Joint stereo / MS Stereo
Mode : Joint stereo
Mode extension : MS Stereo
Codec ID : 55
Codec ID/Hint : MP3
Duration : 21 min 14 s
Bit rate mode : Constant
Bit rate : 128 kb/s
Channel(s) : 2 channels
Sampling rate : 48.0 kHz
Compression mode : Lossy
Stream size : 19.4 MiB (8%)
Alignment : Aligned on interleaves
скриншот  скриншот  скриншот  
Когда раздача ведётся путём добавления новых серий, при каждом добавлении создётся новый торрент. Чтобы начать докачку новой серии, пользователям необходимо сделать следующее:
(1) остановить скачивание,
(2) удалить старый торрент у себя из клиента (старые серии удалять не надо),
(3) скачать новый торрент и запустить его у себя в клиенте вместо старого, при этом указать клиенту путь в старую папку, куда и должно происходить скачивание новых серий.
Ваш клиент при этом должен произвести хеширование (проверку) старой папки (если не производит сам - помогите ему сделать это), и будет докачивать только те серии, которых у вас ещё нет. Старые серии при этом не удаляются, а продолжают раздаваться!
Eсли вы уже удалили старые серии, то предотвратить повторную закачку старых серий можно, отжав галочку в соответсвующих местах при запуске нового торрента. По возможности, желательно не удалять старые серии как можно дольше, чтобы релизёр не столько продолжал раздавать старые серии, а смог сконцентрироваться на новых.
pb.wtf



Скачать Пьяная история через торрент https://i109.fastpic.ru/big/2019/0121/e4/40ea1a5e004723d4fad838c1740033e4.jpg Скачать фильм Пьяная история через торрент бесплантно в хорошем качестве Описание: «Бухая история» — это хулиганский проект вебсайта Funny or Die, который Comedy Central превратил в полноценное телешоу. ... 7.3 10 3
Торрент: Зарегистрирован [2020-01-22 11:05] · скачан: 2 раз
Статус: √ проверено
Размер: 4.07 GB
Как cкачать? Как скачать Пьяная история через торрент | qTorrent

% Раздел Тема Автор DL S | L
Зарубежные сериалы [ 6.97 GB ] Пьяная история / Бухая история / Drunk History / Сезон 6 / Серии 1-16 из 16 [2019 WEB-DL 720p] [MVO] killermax2013 Скачать
1 | 0


Последний раз редактировалось: killermax2013 (2020-01-22 11:05), всего редактировалось 7 раз(а)

28-11-2019 20:33  

Отключить всю рекламу на сайте

22-01-2019 03:57 Пьяная история Скачать торрент  

На последнем скрине Гогольpb.wtf



21-07-2019 18:57 Пьяная история Скачать торрент  

Нагиев!!!
pb.wtf



    Дорогой пользователь! Огромная просьба, поблагодарите релизера, оцените раздачу и оставьте свои комментарий, если Вы скачали Пьяная история через торрент бесплатно! Внесите свою лепту в развитие PiratBit!
    Комментировать посты могут только пользователи прошедшие не сложную регистрацию
    Показать сообщения:    

    Пьяная история через торрент
    Скачать бесплатно Пьяная история
    Пьяная история скачать торрент
    Пьяная история смотреть онлайн
    Cкачать фильм Пьяная история бесплатно
    Пьяная история скачать торрент в хорошем качестве
    Пьяная история смотреть онлайн бесплатно в хорошем качестве


    Вы не можете начинать темы
    Вы не можете отвечать на сообщения
    Вы не можете редактировать свои сообщения
    Вы не можете удалять свои сообщения
    Вы не можете голосовать в опросах
    Вы не можете прикреплять файлы к сообщениям
    Вы можете скачивать файлы