Всегда рабочее зеркало без VPN и Proxy просто перед .vidak.icu напиши любое слово или цифру, Пример http://9n94.vidak.icu

MVO

MVO

1 сезон

1

1 сезон

iTunes

1 сезон

13

1 сезон

Deluxe

pack

Рекомендуем

Repack

30

ВАЖНО

RePack

MK11

RePack

jed

RePack

fifa19

RePack

RDR2

RePack

NEED FOR SPEED™ PAYBACK

Кинопоиск HD

6 сезон

 Острые козырьки 6 сезон

Все сериалы

все сериалы на PB.wtf

RePack

FAR CRY 5
  
Magnet ссылка

Rainbow - Boston (Live 1981) - 2016/ FLAC/ image +.cue/ lossless/ Hard Rock pb.wtf

Rainbow - Boston через торрент pb.wtf

Размер: 424 MB | Добавлен: 3 года 6 мес. назад | Торрент скачан:25 раз
Смотреть онлайн Rainbow - Boston | Скачать    Ребята, помогите собрать деньги на оплату серверов!!!

21-01-2019 15:31 Rainbow - Boston Скачать торрент  


Rainbow - Boston (Live 1981) - 2016


Год издания: 2016
Страна: Hertford, Hertfordshire, England
Жанр: Hard Rock
Продолжительность: 01:05:02
Лейбл издания: Purple Piramid Records
Страна-выпуска диска: USA
Номер по каталогу: CLO 0047
Формат: FLAC
Битрейт аудио: Lossless
Тип рипа: image +.cue
Наличие сканов в содержимом раздачи: да


01. Spotlight Kid (6:06)
02. Love's No Friend (7:53)
03. I Surrender (5:47)
04. Man On The Silver Mountain (3:42)
05. Catch The Rainbow (14:22)
06. Can't Happen Here (4:15)
07. Lost In Hollywood (5:37)
08. Difficult To Cure (6:45)
09. Long Live Rock 'n' Roll (4:13)
10. Smoke On The Water (6:22)

Код:

Exact Audio Copy V1.2 from 12. August 2016

Отчёт EAC об извлечении, выполненном 15. января 2019, 19:04

Rainbow / Boston

Дисковод: TEAC    BD-W512S-A   Adapter: 1  ID: 1

Режим чтения                 : Достоверность
Использование точного потока : Да
Отключение кэша аудио        : Да
Использование указателей C2  : Нет

Коррекция смещения при чтении                     : 667
Способность читать области Lead-in и Lead-out     : Нет
Заполнение пропущенных сэмплов тишиной            : Да
Удаление блоков с тишиной в начале и конце        : Нет
При вычислениях CRC использовались нулевые сэмплы : Да
Интерфейс                                         : Встроенный Win32-интерфейс для Win NT/2000

Выходной формат          : Пользовательский кодировщик
Выбранный битрейт        : 1024 kBit/s
Качество                 : Высокий
Добавление ID3-тега      : Нет
Утилита сжатия           : C:\Program Files (x86)\Exact Audio Copy\FLAC\FLAC.EXE
Дополнительные параметры : -8 -V -T "ARTIST=%artist%" -T "TITLE=%title%" -T "ALBUM=%albumtitle%" -T "DATE=%year%" -T "TRACKNUMBER=%tracknr%" -T "GENRE=%genre%" -T "COMMENT=%comment%" -T "BAND=%albuminterpret%" -T "ALBUMARTIST=%albuminterpret%" -T "COMPOSER=%composer%" %haslyrics%--tag-from-file=LYRICS="%lyricsfile%"%haslyrics% -T "DISCNUMBER=%cdnumber%" -T "TOTALDISCS=%totalcds%" -T "TOTALTRACKS=%numtracks%" %hascover%--picture="%coverfile%"%hascover% %source% -o %dest%

TOC извлечённого CD

     Трек |   Старт  | Длительность | Начальный сектор | Конечный сектор
    ---------------------------------------------------------------------
       1  |  0:00.00 |    6:06.12   |           0      |      27461
       2  |  6:06.12 |    7:52.57   |       27462      |      62918
       3  | 13:58.69 |    5:47.20   |       62919      |      88963
       4  | 19:46.14 |    3:41.49   |       88964      |     105587
       5  | 23:27.63 |   14:21.58   |      105588      |     170220
       6  | 37:49.46 |    4:15.02   |      170221      |     189347
       7  | 42:04.48 |    5:36.63   |      189348      |     214610
       8  | 47:41.36 |    6:44.72   |      214611      |     244982
       9  | 54:26.33 |    4:13.01   |      244983      |     263958
      10  | 58:39.34 |    6:22.05   |      263959      |     292613

Характеристики диапазона извлечения и сообщения об ошибках

Выбранный диапазон

     Имя файла C:\15\Rainbow - Boston\Rainbow - Boston.wav

     Пиковый уровень 100.0 %
     Скорость извлечения 4.4 X
     Качество диапазона 100.0 %
     CRC теста 123EBEBB
     CRC копии 123EBEBB
     Копирование... OK

Ошибок не произошло

AccurateRip: сводка

Трек  1  : извлечено точно (доверие 13)  [C4EFDFF7]  (AR v2)
Трек  2  : извлечено точно (доверие 13)  [8D88BBC9]  (AR v2)
Трек  3  : извлечено точно (доверие 13)  [995589BF]  (AR v2)
Трек  4  : извлечено точно (доверие 13)  [DE7250D4]  (AR v2)
Трек  5  : извлечено точно (доверие 13)  [93DDD465]  (AR v2)
Трек  6  : извлечено точно (доверие 13)  [6337E194]  (AR v2)
Трек  7  : извлечено точно (доверие 13)  [AF78A38A]  (AR v2)
Трек  8  : извлечено точно (доверие 13)  [EB849991]  (AR v2)
Трек  9  : извлечено точно (доверие 13)  [C7A42B5A]  (AR v2)
Трек 10  : извлечено точно (доверие 13)  [DDDA7844]  (AR v2)

Все треки извлечены точно

Конец отчёта

---- CUETools DB Plugin V2.1.6

[CTDB TOCID: le6SXdKTWkWO6ymBiPeioksvRgY-] found
Submit result: le6SXdKTWkWO6ymBiPeioksvRgY- has been confirmed
Track | CTDB Status
  1   | (36/36) Accurately ripped
  2   | (36/36) Accurately ripped
  3   | (36/36) Accurately ripped
  4   | (36/36) Accurately ripped
  5   | (35/36) Accurately ripped
  6   | (36/36) Accurately ripped
  7   | (35/36) Accurately ripped
  8   | (35/36) Accurately ripped
  9   | (34/36) Accurately ripped
10   | (31/36) Accurately ripped

Код:

REM GENRE "Hard Rock"
REM DATE 1981
REM DISCID 8B0F3D0A
REM COMMENT "ExactAudioCopy v1.2"
PERFORMER "Rainbow"
TITLE "Boston"
REM COMPOSER ""
FILE "Rainbow - Boston.flac" WAVE
  TRACK 01 AUDIO
    TITLE "Spotlight Kid"
    PERFORMER "Rainbow"
    REM COMPOSER ""
    INDEX 01 00:00:00
  TRACK 02 AUDIO
    TITLE "Love's No Friend"
    PERFORMER "Rainbow"
    REM COMPOSER ""
    INDEX 01 06:06:12
  TRACK 03 AUDIO
    TITLE "I Surrender"
    PERFORMER "Rainbow"
    REM COMPOSER ""
    INDEX 01 13:58:69
  TRACK 04 AUDIO
    TITLE "Man On The Silver Mountain"
    PERFORMER "Rainbow"
    REM COMPOSER ""
    INDEX 01 19:46:14
  TRACK 05 AUDIO
    TITLE "Catch The Rainbow"
    PERFORMER "Rainbow"
    REM COMPOSER ""
    INDEX 01 23:27:63
  TRACK 06 AUDIO
    TITLE "Can't Happen Here"
    PERFORMER "Rainbow"
    REM COMPOSER ""
    INDEX 01 37:49:46
  TRACK 07 AUDIO
    TITLE "Lost In Hollywood"
    PERFORMER "Rainbow"
    REM COMPOSER ""
    INDEX 01 42:04:48
  TRACK 08 AUDIO
    TITLE "Difficult To Cure"
    PERFORMER "Rainbow"
    REM COMPOSER ""
    INDEX 01 47:41:36
  TRACK 09 AUDIO
    TITLE "Long Live Rock 'n' Roll"
    PERFORMER "Rainbow"
    REM COMPOSER ""
    INDEX 01 54:26:33
  TRACK 10 AUDIO
    TITLE "Smoke On The Water"
    PERFORMER "Rainbow"
    REM COMPOSER ""
    INDEX 01 58:39:34



pb.wtf



Скачать Rainbow - Boston через торрент http://i106.fastpic.ru/big/2019/0121/b5/fa18418654fbdb050a3f1bb8c82767b5.png Скачать, смотреть онлайн Rainbow - Boston бесплантно в хорошем качестве Трэклист Spotlight Kid (6:06) Love's No Friend (7:53) I Surrender (5:47) Man On The Silver Mountain (3:42) ... 10 10 2
Торрент: Зарегистрирован [2019-01-21 15:31] · скачан: 25 раз
Статус: √ проверено
Размер: 424 MB
Как cкачать? Как скачать Rainbow - Boston через торрент | UTorrent

28-11-2019 20:33  

Отключить вcю реклaмy на сайте

    Дорогой пользователь! Огромная просьба, поблагодарите релизера, оцените раздачу и оставьте свои комментарий, если Вы скачали Rainbow - Boston через торрент бесплатно!
    Комментировать посты могут только пользователи прошедшие не сложную регистрацию
    Показать сообщения:    

    Rainbow - Boston через торрент
    Скачать бесплатно Rainbow - Boston
    Rainbow - Boston скачать торрент
    Rainbow - Boston смотреть онлайн
    Cкачать фильм Rainbow - Boston бесплатно
    Rainbow - Boston скачать торрент в хорошем качестве
    Rainbow - Boston смотреть онлайн бесплатно в хорошем качестве


    Вы не можете начинать темы
    Вы не можете отвечать на сообщения
    Вы не можете редактировать свои сообщения
    Вы не можете удалять свои сообщения
    Вы не можете голосовать в опросах
    Вы не можете прикреплять файлы к сообщениям
    Вы можете скачивать файлы