Ссылка на приватное зеркало нашего сайта всего за 1$. Внимание количество ограничено!!!

2 сезон

iTunes

1 сезон

1

2 сезон

2 сезон

iTunes

1 сезон

RePack

30

Ultimate

ВАЖНО

ИГРА 18+

pack

RePack

MK11
pack

Забери бонус

RePack

jed

!!Акция!!

Alien_Rage

RePack

fifa19

RePack

Assassins Creed: Odyssey

RePack

NEED FOR SPEED™ PAYBACK

4 сезон

9 сезон

Бесстыжие 9 сезон

Все сериалы

все сериалы на PB.wtf

RePack

FAR CRY 5
  

Отверженные / Les Misérables / Сезон: 1 / Серии: 1-6 из 6 (Том Шенклэнд) [2019, Драма, мелодрама, исторический, HDTV 720p] [MVO] (Jaskier) pb.wtf

Отверженные через торрент pb.wtf

Размер: 5.54 GB | Добавлен: 1 год 9 мес. назад | Торрент скачан:53 раза
Скачать  

21-01-2019 15:40 Отверженные Скачать торрент  

Отверженные / Les Misérables◈ ✦ Год выхода: 2019
✦ Жанр: Драма, мелодрама, исторический
✦ Страна: США, Великобритания
✦ Продолжительность: ~ 01:00:00
✦ Перевод: Профессиональный (многоголосый закадровый) Jaskier


✦ Режиссер: Том Шенклэнд

✦ В ролях: Доминик Уэст, Лили Коллинз, Элли Бамбер, Дэвид Ойелоуо, Адиль Ахтар, Оливия Колман, Алекс Джарретт, Эрин Келлиман, Джош О’Коннор, Джозеф Куинн, Рис Йейтс

Описание: Картина, состоящая из шести серий, является британской адаптацией знаменитого романа Виктора Гюго. Ключевое событие в повествовании -Июньское восстание, произошедшее в Париже в 1832 году. Жан Вальжан – осужденный за кражу хлеба беглый каторжник, на протяжении долгих лет скрывается от инспектора Жавера. Жавер, в свою очередь, свято верит в справедливость закона и считает делом чести поимку беглого вора. Параллельно с их противостоянием развивается трагичная история Фантины и ее незаконнорожденной дочери Козетты. После смерти Фантины Жан Вальжан, считающий себя в ответе за ее судьбу, забирает Козетту и заботится о ней как о родной дочери.

rating

Информация о файле:
✦ Качество: HDTV 720p
✦ Формат: MKV
✦ Видео: MPEG-4 AVC, ~ 2100 Кбит/с, 1280x640
✦ Аудио 1: 48 kHz, AC3, 2 ch, 192 kbps - MVO
✦ Аудио 2: 48 kHz, AC3, 2 ch, 192 kbps - ENG
Внимание! Раздача ведётся путём добавления новых серий; при каждом добавлении создётся новый торрент. Чтобы начать докачку новой серии, пользователям необходимо сделать следующее: (1) остановить скачивание, (2) удалить старый торрент у себя из клиента (старые серии удалять не надо), (3) скачать новый торрент и запустить его у себя в клиенте вместо старого, при этом указать клиенту путь в старую папку куда и должно происходить скачивание новых серий.
Ваш клиент при этом должен произвести хеширование (проверку) старой папки (если не производит сам - помогите ему сделать это), и будет докачивать только те серии которых у вас ещё нет. Старые серии при этом не удаляются, а продолжают раздаваться!
Eсли вы уже удалили старые серии, то предотвратить повторную закачку старых серий можно, отжав галочку в соответсвующих местах при запуске нового торрента.
General
Unique ID : 250675803537468592154030415783524882757 (0xBC966754BAA9B1178CDA1995B4B8D945)
Complete name : F:\Les.Miserables. Season 1 (HDTV l 720p l JASKiER)\Les.Miserables.S01E01.720p.Jaskier.mkv
Format : Matroska
Format version : Version 2
File size : 1.03 GiB
Duration : 59 min 30 s
Overall bit rate : 2 476 kb/s
Movie name : Les Miserables UK 2018 S01E01 720p HDTV x264 KETTLE
Encoded date : UTC 2019-01-21 13:53:02
Writing application : mkvmerge v7.8.0 ('River Man') 32bit built on Apr 3 2015 12:11:22
Writing library : libebml v1.3.1 + libmatroska v1.4.2

Video
ID : 1
Format : AVC
Format/Info : Advanced Video Codec
Format profile : High@L4.1
Format settings : CABAC / 5 Ref Frames
Format settings, CABAC : Yes
Format settings, RefFrames : 5 frames
Codec ID : V_MPEG4/ISO/AVC
Duration : 59 min 30 s
Bit rate : 2 042 kb/s
Width : 1 280 pixels
Height : 640 pixels
Display aspect ratio : 2.000
Frame rate mode : Constant
Frame rate : 25.000 FPS
Color space : YUV
Chroma subsampling : 4:2:0
Bit depth : 8 bits
Scan type : Progressive
Bits/(Pixel*Frame) : 0.100
Stream size : 869 MiB (82%)
Writing library : x264 core 157 r2935 545de2f KETTLE's/BRiTiSHB00Bs' Custom Build (o_o) :o
Encoding settings : cabac=1 / ref=5 / deblock=1:-2:-2 / analyse=0x3:0x113 / me=umh / subme=9 / psy=1 / psy_rd=1.00:0.00 / mixed_ref=1 / me_range=16 / chroma_me=1 / trellis=2 / 8x8dct=1 / cqm=0 / deadzone=21,11 / fast_pskip=1 / chroma_qp_offset=-2 / threads=12 / lookahead_threads=1 / sliced_threads=0 / nr=0 / decimate=1 / interlaced=0 / bluray_compat=0 / constrained_intra=0 / bframes=5 / b_pyramid=2 / b_adapt=1 / b_bias=0 / direct=3 / weightb=1 / open_gop=0 / weightp=2 / keyint=250 / keyint_min=25 / scenecut=40 / intra_refresh=0 / rc_lookahead=50 / rc=crf / mbtree=1 / crf=18.0 / qcomp=0.60 / qpmin=0 / qpmax=69 / qpstep=4 / ip_ratio=1.40 / aq=1:1.00
Language : English
Default : Yes
Forced : No
Color range : Limited
Matrix coefficients : BT.709

Audio #1
ID : 2
Format : AC-3
Format/Info : Audio Coding 3
Format settings, Endianness : Big
Codec ID : A_AC3
Duration : 59 min 30 s
Bit rate mode : Constant
Bit rate : 192 kb/s
Channel(s) : 2 channels
Channel positions : Front: L R
Sampling rate : 48.0 kHz
Frame rate : 31.250 FPS (1536 SPF)
Bit depth : 16 bits
Compression mode : Lossy
Delay relative to video : -40 ms
Stream size : 81.7 MiB (8%)
Language : Russian
Service kind : Complete Main
Default : Yes
Forced : No

Audio #2
ID : 3
Format : AC-3
Format/Info : Audio Coding 3
Format settings, Endianness : Big
Codec ID : A_AC3
Duration : 59 min 30 s
Bit rate mode : Constant
Bit rate : 192 kb/s
Channel(s) : 2 channels
Channel positions : Front: L R
Sampling rate : 48.0 kHz
Frame rate : 31.250 FPS (1536 SPF)
Bit depth : 16 bits
Compression mode : Lossy
Delay relative to video : -36 ms
Stream size : 81.7 MiB (8%)
Language : English
Service kind : Complete Main
Default : No
Forced : No

скриншот  скриншот  скриншот  
pb.wtf



Скачать Отверженные через торрент https://i106.fastpic.ru/big/2019/0106/39/26206848d713c926a7a54fc7910ea939.jpg Скачать фильм Отверженные через торрент бесплантно в хорошем качестве Описание: Картина, состоящая из шести серий, является британской адаптацией знаменитого романа Виктора Гюго. Ключевое событие в ... 5.8 10 4
Торрент: Зарегистрирован [2019-02-10 17:40] · скачан: 53 раз
Статус: √ проверено
Размер: 5.54 GB
Как cкачать? Как скачать Отверженные через торрент | qTorrent

% Раздел Тема Автор DL S | L
Зарубежные сериалы [ 5.17 GB ] Отверженные / Les Misérables / Сезон: 1 / Серии: 1-6 из 6 [2019 исторический BDRip] [MVO] killermax2013 Скачать
2 | 0
Зарубежные сериалы [ 13.98 GB ] Отверженные / Les Miserables / Сезон: 1 / Серии: 1-6 из 6 [2019 история HDTVRip 1080p] MVO [TVShows] bober100 Скачать
1 | 0
Зарубежные сериалы [ 24.35 GB ] Отверженные / Les Misérables / Les Miserables / Сезон: 1 / Серии: 1-6 из 6 [2018-2019 история WEB-DL 1080p] MVO [LostFilm] bober100 Скачать
1 | 0
Зарубежные сериалы [ 4.29 GB ] Отверженные / Les Misérables / Сезон: 1 / Серии: 1-6 из 6 [2019 исторический HDTVRip] [MVO] killermax2013 Скачать
1 | 0
Зарубежные сериалы [ 9.37 GB ] Отверженные / Les Misérables / Сезон: 1 / Серии: 1-6 из 6 [2019 исторический HDTV 720p] [MVO] killermax2013 Скачать
1 | 0
Зарубежные сериалы [ 10.99 GB ] Отверженные / Les Misérables / Сезон: 1 / Серии: 1-6 из 6 [2019 исторический WEBRip 720p] [MVO] killermax2013 Скачать
1 | 0
Зарубежные сериалы [ 5.07 GB ] Отверженные / Les Misérables / Сезон: 1 / Серии: 1-6 из 6 [2019 исторический HDTVRip] [MVO] killermax2013 Скачать
1 | 0

28-11-2019 20:33  

Отключить всю рекламу на сайте

    Дорогой пользователь! Огромная просьба, поблагодарите релизера, оцените раздачу и оставьте свои комментарий, если Вы скачали Отверженные через торрент бесплатно! Внесите свою лепту в развитие PiratBit!
    Комментировать посты могут только пользователи прошедшие не сложную регистрацию
    Показать сообщения:    

    Отверженные через торрент
    Скачать бесплатно Отверженные
    Отверженные скачать торрент
    Отверженные смотреть онлайн
    Cкачать фильм Отверженные бесплатно
    Отверженные скачать торрент в хорошем качестве
    Отверженные смотреть онлайн бесплатно в хорошем качестве


    Вы не можете начинать темы
    Вы не можете отвечать на сообщения
    Вы не можете редактировать свои сообщения
    Вы не можете удалять свои сообщения
    Вы не можете голосовать в опросах
    Вы не можете прикреплять файлы к сообщениям
    Вы можете скачивать файлы