Мега распродажа FORZA HORIZON 4 ULTIMATE+ВСЕ DLC+ОНЛАЙН всего за 499р. 349 руб. (супер цена). Внимание количество ограничено!!!

Лицензия

30

iTunes

мы

iTunes

1

1 сезон

Чернобыль

1 сезон

Ральф против интернета

MVO

Покемон. Детектив Пикачу

8 сезон

Игра престолов

iTunes

1+1

ИГРА 18+

pack

ВАЖНО

!!Акция!!

Alien_RageХит недели

RePack

Resident Evil 21
pack

RePack

Metro:Exodus

!!Акция!!

Alien_Rage

RePack

fifa19

RePack

Assassins Creed: Odyssey

RePack

NEED FOR SPEED™ PAYBACK

3 сезон

9 сезон

Бесстыжие 9 сезон

Все сериалы

все сериалы на PB.wtf

RePack

FAR CRY 5
Ребята, катастрофически не хватает 2730р. для оплаты серверов за МАЙ (всвязи с блокировками трафик упал в 3 раза), 1-2р., выручайте.
  

Гранд Тур / The Grand Tour / Сезон 3 / Серии 1-14 из 14 [2019., Авто-шоу, WEBRip 1080p] [MVO] (Jetvis Studio) pb.wtf

Гранд Тур через торрент pb.wtf

Раздают: 1 [ 43 KB/s ] Качают: 1 [ 0 KB/s ]
Размер: 63.13 GB | Добавлен: 2 мес. 1 д. назад | Торрент скачан:14 раз
Скачать  

21-01-2019 16:39 Гранд Тур Скачать торрент  

Гранд Тур / The Grand Tour / Сезон: 3 Дата выпуска: 2019
Страна: США, Великобритания
Ведущие: Джереми Кларксон, Ричард Хаммонд и Джеймс Мэй
Жанр: Автошоу
Продолжительность: 01:10:35
Перевод: Любительский (многоголосый закадровый) - Jetvis Studio (при участии голоса ТК Россия-2 - Максима Меркулова)
субтитры: Нет

Релиз:
Озвучка: Jetvis Studio
Роли озвучивали: Иван Назаров, Максим Меркулов, Михаил Вельмискин.
А также: Никита Пугач, Анастасия Домнина

Описание: Предлагаем вашему вниманию долгожданный многими фанатами автомобилей проект с легендарными ведущими Джереми Кларксоном, Джеймом Мэйем и Ричардом Хаммондом. В центре внимания проекта оказываются автомобили со всего света. Ведущие отправляются в большое путешествие по миру, чтобы найти раритетные модели авто или же невероятные суперкары. В каждом новом городе будет снят очередной эпизод этого шоу, а ведущие проведут тест драйв местных автомобилей, рассказав о них кое-что по-настоящему интересное.



Качество видео: WEBRip 1080p
Формат видео: MKV
Видео: H.264, 1920x1080 (16:9), 25.000 fps, ~8076 kbps, ~0.154 bit/pixel
Аудио Rus: 48 kHz, AC3, 2 ch, ~192.00 kbps avg
Аудио Eng: 48 kHz, AC3, 2 ch, ~192.00 kbps avg
General
Unique ID : 209075079020529014333848562412644934491 (0x9D4A6541864DDAFFBC334A9B3247235B)
Complete name : E:\The.Grand.Tour.S03.Jetvis.Studio.1080p\The.Grand.Tour.S03E01.Motown.Funk.Jetvis.Studio.mkv
Format : Matroska
Format version : Version 4 / Version 2
File size : 4.15 GiB
Duration : 1 h 8 min
Overall bit rate : 8 632 kb/s
Encoded date : UTC 2019-01-19 10:01:01
Writing application : mkvmerge v9.8.0 ('Kuglblids') 64bit
Writing library : libebml v1.3.4 + libmatroska v1.4.5

Video
ID : 1
Format : AVC
Format/Info : Advanced Video Codec
Format profile : High@L4
Format settings : CABAC / 4 Ref Frames
Format settings, CABAC : Yes
Format settings, RefFrames : 4 frames
Codec ID : V_MPEG4/ISO/AVC
Duration : 1 h 8 min
Bit rate : 8 076 kb/s
Width : 1 920 pixels
Height : 1 080 pixels
Display aspect ratio : 16:9
Frame rate mode : Constant
Frame rate : 25.000 FPS
Color space : YUV
Chroma subsampling : 4:2:0
Bit depth : 8 bits
Scan type : Progressive
Bits/(Pixel*Frame) : 0.156
Stream size : 3.89 GiB (94%)
Default : Yes
Forced : No
Color range : Limited
Color primaries : BT.709
Transfer characteristics : BT.709
Matrix coefficients : BT.709

Audio #1
ID : 2
Format : AC-3
Format/Info : Audio Coding 3
Format settings, Endianness : Big
Codec ID : A_AC3
Duration : 1 h 8 min
Bit rate mode : Constant
Bit rate : 192 kb/s
Channel(s) : 2 channels
Channel positions : Front: L R
Sampling rate : 48.0 kHz
Frame rate : 31.250 FPS (1536 SPF)
Bit depth : 16 bits
Compression mode : Lossy
Stream size : 94.6 MiB (2%)
Service kind : Complete Main
Default : Yes
Forced : Yes

Audio #2
ID : 3
Format : AC-3
Format/Info : Audio Coding 3
Format settings, Endianness : Big
Codec ID : A_AC3
Duration : 1 h 8 min
Bit rate mode : Constant
Bit rate : 192 kb/s
Channel(s) : 2 channels
Channel positions : Front: L R
Sampling rate : 48.0 kHz
Frame rate : 31.250 FPS (1536 SPF)
Bit depth : 16 bits
Compression mode : Lossy
Stream size : 94.6 MiB (2%)
Service kind : Complete Main
Default : No
Forced : No
скриншот  скриншот  скриншот  
Когда раздача ведётся путём добавления новых серий, при каждом добавлении создётся новый торрент. Чтобы начать докачку новой серии, пользователям необходимо сделать следующее:
(1) остановить скачивание,
(2) удалить старый торрент у себя из клиента (старые серии удалять не надо),
(3) скачать новый торрент и запустить его у себя в клиенте вместо старого, при этом указать клиенту путь в старую папку, куда и должно происходить скачивание новых серий.
Ваш клиент при этом должен произвести хеширование (проверку) старой папки (если не производит сам - помогите ему сделать это), и будет докачивать только те серии, которых у вас ещё нет. Старые серии при этом не удаляются, а продолжают раздаваться!
Eсли вы уже удалили старые серии, то предотвратить повторную закачку старых серий можно, отжав галочку в соответсвующих местах при запуске нового торрента. По возможности, желательно не удалять старые серии как можно дольше, чтобы релизёр не столько продолжал раздавать старые серии, а смог сконцентрироваться на новых.
pb.wtf



Скачать Гранд Тур через торрент https://i84.fastpic.ru/big/2019/0118/7e/b166d83573607d53cec900062870557e.jpg Скачать фильм Гранд Тур через торрент бесплантно в хорошем качестве Описание: Предлагаем вашему вниманию долгожданный многими фанатами автомобилей проект с легендарными ведущими Джереми Кларксоном, Джеймом ... 7.5 10 11
Торрент: Зарегистрирован [2019-04-25 18:04] · скачан: 14 раз
Статус: √ проверено
Размер: 63.13 GB
Как cкачать? Как скачать Гранд Тур через торрент | qTorrent

% Раздел Тема Автор DL S | L
Автоспорт [ 20.77 GB ] Гранд Тур / The Grand Tour / Сезон 3 / Серии 1-14 из 14 [2019. Авто-шоу WEB-DLRip] [MVO] killermax2013 Скачать
2 | 0
Автоспорт [ 66.91 GB ] Гранд Тур / The Grand Tour / Сезон: 3 / Серии: 1-14 из 14 [2019 Авто-шоу WEB-DL 1080p] MVO [AlexFilm] bober100 Скачать
4 | 1
Автоспорт [ 40.44 GB ] Гранд Тур / The Grand Tour / Сезон: 3 / Серии: 1-14 из 14 [2019 Авто-шоу WEB-DL 720p] MVO [AlexFilm] bober100 Скачать
4 | 3
Автоспорт [ 10.75 GB ] Гранд Тур / The Grand Tour / Сезон: 3 / Серии: 1-14 из 14 [2019. Авто-шоу WEBRip] [MVO] killermax2013 Скачать
3 | 0
Автоспорт [ 35 GB ] Гранд Тур / The Grand Tour / Сезон: 3 / Серии: 1-14 из 14 [2019. Авто-шоу WEBRip 720p] [MVO] killermax2013 Скачать
1 | 0
Автоспорт [ 59.22 GB ] Гранд Тур / The Grand Tour / Сезон: 3 / Серии: 1-14 из 14 [2019. Авто-шоу WEBRip 1080p] [MVO] killermax2013 Скачать
1 | 0
Автоспорт [ 63.58 GB ] Гранд Тур / The Grand Tour / Сезон 3 / Серии 1-14 из 14 [2019. Авто-шоу WEB-DL 1080p] [Sub Rus] + [Multi] killermax2013 Скачать
2 | 0


Последний раз редактировалось: killermax2013 (2019-04-25 18:04), всего редактировалось 10 раз(а)


>> Регистрируемся здесь <<






Отзывы и комментарии о схеме читаем и пишем здесь: ---> Отзывы и комментарии о схеме

Новые благодарочки в телеграм довольных пользователей:
скриншот   скриншот   скриншот   скриншот   скриншот

02-03-2019 17:57 Гранд Тур Скачать торрент  

killermax2013, у тебя тут папка The.Grand.Tour.S03.Jetvis.Studio.1080p а в предыдущей раздаче была The.Grand.Tour.S03.Jetvis.Studio. До этого опять The.Grand.Tour.S03.Jetvis.Studio.1080ppb.wtf



    Дорогой пользователь! Огромная просьба, поблагодарите релизера, оцените раздачу и оставьте свои комментарий, если Вы скачали Гранд Тур через торрент бесплатно! Внесите свою лепту в развитие PiratBit!
    Комментировать посты могут только пользователи прошедшие не сложную регистрацию
    Показать сообщения:    

    Гранд Тур через торрент
    Скачать бесплатно Гранд Тур
    Гранд Тур скачать торрент
    Гранд Тур смотреть онлайн
    Cкачать фильм Гранд Тур бесплатно
    Гранд Тур скачать торрент в хорошем качестве
    Гранд Тур смотреть онлайн бесплатно в хорошем качестве


    Вы не можете начинать темы
    Вы не можете отвечать на сообщения
    Вы не можете редактировать свои сообщения
    Вы не можете удалять свои сообщения
    Вы не можете голосовать в опросах
    Вы не можете прикреплять файлы к сообщениям
    Вы можете скачивать файлы