новый адрес
Ссылка на приватное зеркало всего за 1$. Внимание количество ограничено!!!

iTunes

1+1

iTunes

мы

iTunes

1

iTunes

Чернобыль

iTunes

Ральф против интернета

Лицензия

ПШазам

Лицензия

Оно 2

Лицензия

30
pack

Вам бонус

ВАЖНО

!!Акция!!

Alien_RageХит недели

RePack

Resident Evil 21

ИГРА 18+

pack

RePack

jed

!!Акция!!

Alien_Rage

RePack

fifa19

RePack

Assassins Creed: Odyssey

RePack

NEED FOR SPEED™ PAYBACK

3 сезон

9 сезон

Бесстыжие 9 сезон

Все сериалы

все сериалы на PB.wtf

RePack

FAR CRY 5
Ребята, катастрофически не хватает 1900р. для оплаты серверов за Октябрь (всвязи с блокировками трафик упал в 3 раза), 1-2р., выручайте.
  

Человек, который убил Дон Кихота / The Man Who Killed Don Quixote (Терри Гиллиам) [2018 г., фэнтези, драма, комедия, приключения, BDRip, Дубляж iTunes] pb.wtf

Человек, который убил Дон Кихота через торрент pb.wtf

Раздают: 1 [ 0 KB/s ]
Размер: 1.46 GB | Добавлен: 10 мес. назад | Торрент скачан:344 раза
Скачать  

21-01-2019 18:35 Человек, который убил Дон Кихота Скачать торрент  

Человек который убил Дон Кихота / The Man Who Killed Don Quixote

Год выпуска: 2018
Страна: Испания, Бельгия, Франция, Португалия, Великобритания
Жанр: фэнтези, драма, комедия, приключения
Продолжительность: 02:13:03
Перевод: Дубляж iTunes
Субтитры: Отсутствуют

Режиссер: Терри Гиллиам

Бюджет: €17 000 000
Премьера в мире: 19 мая 2018


rating

В ролях: Адам Драйвер, Джонатан Прайс, Стеллан Скарсгард, Ольга Куриленко, Жуана Рибейру, Оскар Хаенада, Джейсон Уоткинс, Серхи Лопес, Хорди Молья, Диого Андраде

Описание: Режиссер Тобиас Граммет, мучаясь в Испании над очередным рекламным шедевром, в поисках вдохновения отправился в деревню, где 10 лет назад снимал свой дипломный фильм — про Дон Кихота. И нашел там исполнителя главной роли — спятившего старого сапожника, уверовавшего, что он… и есть настоящий Рыцарь печального образа! Старик принял Тоби за своего верного оруженосца Санчо и насильно потащил в опасное путешествие, где реальность трансформируется в фантазию, а правду не отличить от вымысла.

Качество: BDRip
Формат: AVI
Видео кодек: XviD
Аудио кодек: AC3
Видео: 720x304 (2,35:1), 24,000 fps, XviD ~1370 kbps avg, 0.261 bit/pixel
Аудио#1: 48 kHz, AС3, 2 ch, ~192.00 kbps avg



Формат : AVI
Формат/Информация : Audio Video Interleave
Размер файла : 1,46 Гбайт
Продолжительность : 2 ч. 13 м.
Общий поток : 1571 Кбит/сек
Программа кодирования : VirtualDubMod 1.5.10.3 | www.virtualdub-fr.org || (build 2550/release)
Библиотека кодирования : VirtualDubMod build 2550/release

Видео
Идентификатор : 0
Формат : MPEG-4 Visual
Профиль формата : Advanced Simple@L5
Настройки формата : BVOP1 / Custom Matrix
Параметр BVOP формата : 1
Параметр QPel формата : Нет
Параметр GMC формата : Без точки перехода
Параметр матрицы формата : Выборочная
Идентификатор кодека : XVID
Идентификатор кодека/Подсказка : XviD
Продолжительность : 2 ч. 13 м.
Битрейт : 1370 Кбит/сек
Ширина : 720 пикселей
Высота : 304 пикселя
Соотношение сторон : 2,35:1
Частота кадров : 24,000 кадра/сек
Цветовое пространство : YUV
Субдискретизация насыщенности : 4:2:0
Битовая глубина : 8 бит
Тип развёртки : Прогрессивная
Метод сжатия : С потерями
Бит/(Пиксели*Кадры) : 0.261
Размер потока : 1,27 Гбайт (87%)
Библиотека кодирования : XviD 73

Аудио
Идентификатор : 1
Формат : AC-3
Формат/Информация : Audio Coding 3
Коммерческое название : Dolby Digital
Идентификатор кодека : 2000
Продолжительность : 2 ч. 12 м.
Вид битрейта : Постоянный
Битрейт : 192 Кбит/сек
Каналы : 2 канала
Channel layout : L R
Частота : 48,0 КГц
Частота кадров : 31,250 кадров/сек (1536 SPF)
Битовая глубина : 16 бит
Метод сжатия : С потерями
Размер потока : 183 Мбайт (12%)
Выравнивание : Разделение по промежуткам
Продолжительность промежутка : 42 мс. (1,00 видеокадр)
Время предзагрузки промежутка : 500 мс.
ServiceKind/String : Complete Main

pb.wtf



Скачать Человек, который убил Дон Кихота через торрент https://c.radikal.ru/c33/1901/c2/5638189abe3b.png Скачать фильм Человек, который убил Дон Кихота через торрент бесплантно в хорошем качестве Описание: Режиссер Тобиас Граммет, мучаясь в Испании над очередным рекламным шедевром, в поисках вдохновения отправился в деревню, где 10 ... 9.7 10 15
Info! Золотая раздача, скачанное не засчитывается.
Торрент: Зарегистрирован [2019-01-21 18:35] · скачан: 344 раз
Статус: √ проверено
Размер: 1.46 GB
Как cкачать? Как скачать Человек, который убил Дон Кихота через торрент | qTorrent

% Раздел Тема Автор DL S | L
Фильмы (Blu-ray, BD-Remux, HDDVD) [ 34.2 GB ] Человек который убил Дон Кихота / The Man Who Killed Don Quixote [2018 BDRemux 1080p] killermax2013 Скачать
1 | 0
Фильмы 2018 [DVDrip, WEB-DLRip, HDrip] (DUB, MVO) [ 774 MB ] Человек который убил Дон Кихота / The Man Who Killed Don Quixote [2018 HDRip] bober100 Скачать
1 | 0
Фильмы [HD 720p, 1080p] (Хороший звук DUB, MVO) [ 13.84 GB ] Человек который убил Дон Кихота / The Man Who Killed Don Quixote [2018 BDRip 1080p] sheker187 Скачать
4 | 0
Фильмы 2018 [DVDrip, WEB-DLRip, HDrip] (DUB, MVO) [ 1.46 GB ] Человек который убил Дон Кихота / The Man Who Killed Don Quixote [2018 BDRip] - Twi7ter Скачать
2 | 0
Фильмы 2018 [DVDrip, WEB-DLRip, HDrip] (DUB, MVO) [ 2.12 GB ] Человек который убил Дон Кихота / The Man Who Killed Don Quixote [2018 BDRip] - Twi7ter Скачать
2 | 0
Фильмы 2018 [DVDrip, WEB-DLRip, HDrip] (DUB, MVO) [ 2.43 GB ] Человек который убил Дон Кихота / The Man Who Killed Don Quixote [2018 BDRip-AVC] sheker187 Скачать
1 | 0
Фильмы 2018 [DVDrip, WEB-DLRip, HDrip] (DUB, MVO) [ 2.12 GB ] Человек который убил Дон Кихота / The Man Who Killed Don Quixote [2018 BDRip] killermax2013 Скачать
3 | 0
Отключить всю рекламу на сайте

22-01-2019 18:13 Человек, который убил Дон Кихота Скачать торрент  

Не советую!!!!Бред полный!!!pb.wtf



22-01-2019 19:28 Человек, который убил Дон Кихота Скачать торрент  

Да бредятина трешеваяpb.wtf



    Дорогой пользователь! Огромная просьба, поблагодарите релизера, оцените раздачу и оставьте свои комментарий, если Вы скачали Человек, который убил Дон Кихота через торрент бесплатно! Внесите свою лепту в развитие PiratBit!
    Комментировать посты могут только пользователи прошедшие не сложную регистрацию
    Показать сообщения:    

    Человек, который убил Дон Кихота через торрент
    Скачать бесплатно Человек, который убил Дон Кихота
    Человек, который убил Дон Кихота скачать торрент
    Человек, который убил Дон Кихота смотреть онлайн
    Cкачать фильм Человек, который убил Дон Кихота бесплатно
    Человек, который убил Дон Кихота скачать торрент в хорошем качестве
    Человек, который убил Дон Кихота смотреть онлайн бесплатно в хорошем качестве


    Вы не можете начинать темы
    Вы не можете отвечать на сообщения
    Вы не можете редактировать свои сообщения
    Вы не можете удалять свои сообщения
    Вы не можете голосовать в опросах
    Вы не можете прикреплять файлы к сообщениям
    Вы можете скачивать файлы