Доктор Стрэндж

Лицензия

Добыча

Дубляж

Дом дракона

1 сезон

Тор

Дубляж

В эфире

Дубляж

Там, где раки поют

MVO

Властелин колец

1 сезон

Ultimate

pack

Рекомендуем

30

Пиратка

ВАЖНО

ВАЖНО

Ghostwire

Пиратка

jed

RePack

nioh2

RePack

RDR2

RePack

NEED FOR SPEED™ PAYBACK

RePack

скачать торрент

Кинопоиск HD

Острые козырьки 6 сезон

6 сезон

FAR CRY 6

RePack

скачать торрент

Лицензия

скачать торрент

MVO

1

1 сезон

скачать торрент

1 сезон

скачать торрент

Лицензия

  

Другие / Серии 1-16 из 16 (Ольга Доброва-Куликова) [2018 г., Драма, WEBRip]

Другие через торрент pb.wtf

Размер: 10.33 GB | Добавлен: 3 года 9 мес. назад | Торрент скачан:91 раз
Смотреть онлайн | Скачать   

22-01-2019 04:58 Другие Скачать торрент  

Другие
Год выпуска: 2018
Страна: Россия
Жанр: Драма
Продолжительность: 16 х ~ 00:51:00
Субтитры: Отсутствуют

Режиссер: Ольга Доброва-Куликова

В ролях: Елена Подкаминская, Светлана Смирнова-Марцинкевич, Кирилл Сафонов, Сергей Горобченко, Наталья Романычева, Эльдар Лебедев, Мила Сивацкая, Наталья Земцова, Марта Тимофеева, Ёла Санько, Михаил Пшеничный, Елена Муравьёва, Анастасия Дятлова, Владимир Щербаков, Виктор Запорожский, Александр Синюков, Виктор Конухин

Описание: 50-е годы. Бездетная пара берет из детского дома маленькую девочку. Скоро новоиспеченные родители обнаруживают, что им достался необычный ребенок, - из тех, кого сегодня называют экстрасенсами. Дочь доставляет родителям массу проблем, к которым те совершенно не готовы. Неожиданно возвращается из сталинских лагерей родная мать девочки, тоже обладающая паранормальными способностями. Она хочет забрать ребенка, но получает отказ. Сотрудник госбезопасности Гринёв обещает Вале вернуть дочь, если она поработает на разведку…

Качество: WEBRip
Формат: AVI
Видео кодек: XviD
Аудио кодек: AC3
Видео: XviD, 1700 Кбит/с, 720x400
Аудио#1: AC3, 2 ch, 192 Кбит/с
скриншот   скриншот   скриншот   скриншот   скриншот   скриншот   скриншот  
скриншот  

General
Complete name : H:\релизы.торрентфайл\Другие .2019.WEB-DLRip. Files-x\01. Другие .2019. WEB-DLRip. Files-x.avi
Format : AVI
Format/Info : Audio Video Interleave
File size : 661 MiB
Duration : 51mn 16s
Overall bit rate : 1 802 Kbps
Writing application : VirtualDubMod 1.5.10.3 | www.virtualdub-fr.org || (build 2550/release)
Writing library : VirtualDubMod build 2550/release

Video
ID : 0
Format : MPEG-4 Visual
Format profile : Advanced [email protected]
Format settings, BVOP : 1
Format settings, QPel : No
Format settings, GMC : No warppoints
Format settings, Matrix : Custom
Codec ID : XVID
Codec ID/Hint : XviD
Duration : 51mn 16s
Bit rate : 1 600 Kbps
Width : 720 pixels
Height : 400 pixels
Display aspect ratio : 16:9
Frame rate : 25.000 fps
Color space : YUV
Chroma subsampling : 4:2:0
Bit depth : 8 bits
Scan type : Progressive
Compression mode : Lossy
Bits/(Pixel*Frame) : 0.222
Stream size : 587 MiB (89%)
Writing library : XviD 73

Audio
ID : 1
Format : AC-3
Format/Info : Audio Coding 3
Mode extension : CM (complete main)
Format settings, Endianness : Big
Codec ID : 2000
Duration : 51mn 16s
Bit rate mode : Constant
Bit rate : 192 Kbps
Channel(s) : 2 channels
Channel positions : Front: L R
Sampling rate : 48.0 KHz
Bit depth : 16 bits
Compression mode : Lossy
Stream size : 70.4 MiB (11%)
Alignment : Split accross interleaves
Interleave, duration : 40 ms (1.00 video frame)
Interleave, preload duration : 500 ms

Внимание! Раздача ведётся путём добавления новых серий; при каждом добавлении создётся новый торрент. Чтобы начать докачку новой серии, пользователям необходимо сделать следующее:
  • Остановить скачивание,
  • Удалить старый торрент у себя из клиента (старые серии удалять не надо),
  • Скачать новый торрент и запустить его у себя в клиенте вместо старого, при этом указать клиенту путь в старую папку куда и должно происходить скачивание новых серий.
Ваш клиент при этом должен произвести хеширование (проверку) старой папки (если не производит сам - помогите ему сделать это), и будет докачивать только те серии которых у вас ещё нет. Старые серии при этом не удаляются, а продолжают раздаваться!

Eсли вы уже удалили старые серии, то предотвратить повторную закачку старых серий можно, отжав галочку в соответсвующих местах при запуске нового торрента. По возможности, желательно не удалять старые серии как можно дольше чтобы релизёр не столько продолжал раздавать старые серии, а смог сконцентрироваться на новых.



Скачать Другие через торрент https://pic1.kartinco.top/images/12/8r5sy.jpg Скачать, смотреть онлайн Другие бесплантно в хорошем качестве Описание: 50-е годы. Бездетная пара берет из детского дома маленькую девочку. Скоро новоиспеченные родители обнаруживают, что им достался ... 10 10 5
Торрент: Зарегистрирован [2019-01-31 23:52] · скачан: 91 раз
Статус: √ проверено
Размер: 10.33 GB
Как cкачать? Как скачать Другие через торрент | UTorrent

% Раздел Тема Автор DL S | L
Наши сериалы [ 9.38 GB ] Другие / Сезон: 1 / Серии: 1-16 из 16 | | SATRip bober100 Скачать
1 | 0
Наши сериалы [ 10.28 GB ] Другие / Сезон: 1 / Серии: 1-16 из 16 | | WEBRip-AVC bober100 Скачать
1 | 0
Наши сериалы [ 10.82 GB ] Другие / Серии: 1-16 из 16 | | SATRip-AVC aleksan55 Скачать
1 | 0



Последний раз редактировалось: oleg8 (2019-01-29 14:36), всего редактировалось 2 раз(а)

28-11-2019 20:33  


Отключить вcю реклaмy на сайте, в т.ч. и в плеере онлайн просмотра!

25-01-2019 06:00 Другие Скачать торрент  

oleg8, Укажите правильный Год премьеры



    Дорогой пользователь! Огромная просьба, поблагодарите релизера, оцените раздачу и оставьте свои комментарий, если Вы скачали Другие через торрент бесплатно!!
    Комментировать посты могут только пользователи прошедшие не сложную регистрацию
    Показать сообщения:    


    Другие через торрент
    Скачать бесплатно Другие
    Другие скачать торрент
    Другие смотреть онлайн
    Cкачать фильм Другие бесплатно
    Другие скачать торрент в хорошем качестве
    Другие смотреть онлайн бесплатно в хорошем качестве
    Вы не можете начинать темы
    Вы не можете отвечать на сообщения
    Вы не можете редактировать свои сообщения
    Вы не можете удалять свои сообщения
    Вы не можете голосовать в опросах
    Вы не можете прикреплять файлы к сообщениям
    Вы можете скачивать файлы
    Другие / Серии 1-16 из 16 [2018 г., Драма, WEBRip] смотреть онлайн, скачать торрент picoco.icu