Ссылка на приватное зеркало нашего сайта всего за 1$. Внимание количество ограничено!!!

2 сезон

iTunes

1 сезон

1

2 сезон

2 сезон

iTunes

1 сезон

RePack

30

Новинка

ВАЖНО

ИГРА 18+

pack

RePack

MK11
pack

Забери бонус

RePack

jed

!!Акция!!

Alien_Rage

RePack

fifa19

RePack

Assassins Creed: Odyssey

RePack

NEED FOR SPEED™ PAYBACK

4 сезон

9 сезон

Бесстыжие 9 сезон

Все сериалы

все сериалы на PB.wtf

RePack

FAR CRY 5
  

Лемони Сникет: 33 несчастья / Lemony Snicket's A Series of Unfortunate Events / Сезон: 3 / Серия: 1-7 из 7 (Бэрри Зонненфельд, Марк Палански, Бо Уэлш) [2019, Драма, приключения, семейный, WEBRip 720p] [MVO] (Good People) pb.wtf

Лемони Сникет: 33 несчастья через торрент pb.wtf

Размер: 8.77 GB | Добавлен: 1 год 10 мес. назад | Торрент скачан:26 раз
Скачать  

22-01-2019 06:43 Лемони Сникет: 33 несчастья Скачать торрент  

Лемони Сникет: 33 несчастья / Lemony Snicket's A Series of Unfortunate Events
Оригинальное название: Lemony Snicket's A Series of Unfortunate Events
Русское название: Лемони Сникет: 33 несчастья
Год выпуска: 2019
Страна: США
Жанр: Драма, приключения, семейный
Продолжительность: ~ 00:45:00
Перевод: Профессиональный (многоголосый закадровый) Good People
Субтитры: (на песни), английские
Режиссёр: Бэрри Зонненфельд, Марк Палански, Бо Уэлш
В ролях: Нил Патрик Харрис, Усман Элли, Мэттью Кардаропле, Джон ДеСантис, Луи Хайнс, Малина Вайсман, Сара Каннинг, Патрик Китинг, Кэтрин О’Хара, Элфри Вудард и другие
Описание: В центре внимания сериала - большая семья, которая пытается прийти в себя после страшного пожара, который разрушил их дом. Семейство Бодлер остается на улице. Дети Вайолет, Солнышко и Клаус потеряли своих родителей в этой бушующей стихии. Ребята отправляются к графу Олафу на попечение. Тот принимает детей, но при этом очень хочет захватить в свои владения все то, что ранее им принадлежало! Дети же всячески пытаются найти тех, кто их защитит, считая, что Олаф не просто их опекун, а настоящий тиран, который мечтает о смерти ребят. Конечно же, детей никто не слушает. Однако все же находятся те, кто готов помочь!

Сэмпл
Качество: WEBRip 720p
Формат: MKV
Видео кодек: AVC
Аудио кодек: AC3, E-AC3
Видео: AVC, 1280x720 (16:9), 24 fps, ~2300kbps, 0.107 bit/pixel
Аудио 1: Dolby AC3 48000Hz 5.1 640 Kbps Русский (песни закадровым голосом)
Аудио 2: Dolby AC3 48000Hz 5.1 640 Kbps Русский (песни оригинальные)
Аудио 3: Dolby E-AC3 48000Hz 5.1 640 Kbps Оригинал (Английский)
General
Unique ID : 216431093829179412752208866241306640124 (0xA2D31CC989766F47BD2BDDBD80E73EFC)
Complete name : A.Series.Of.Unfortunate.Events.S03E01.The.Slippery.Slope.Part.One.720p.AMZN.WEB-DL.DDP5.1.H.264-GoodPeople.mkv
Format : Matroska
Format version : Version 4
File size : 1.29 GiB
Duration : 43 min 52 s
Overall bit rate mode : Variable
Overall bit rate : 4 213 kb/s
Encoded date : UTC 2019-01-22 00:12:48
Writing application : mkvmerge v17.0.0 ('Be Ur Friend') 64-bit
Writing library : libebml v1.3.5 + libmatroska v1.4.8

Video
ID : 1
Format : AVC
Format/Info : Advanced Video Codec
Format profile : Main@L3.1
Format settings : CABAC / 3 Ref Frames
Format settings, CABAC : Yes
Format settings, ReFrames : 3 frames
Codec ID : V_MPEG4/ISO/AVC
Duration : 43 min 52 s
Bit rate mode : Variable
Bit rate : 2 370 kb/s
Maximum bit rate : 3 555 kb/s
Width : 1 280 pixels
Height : 720 pixels
Display aspect ratio : 16:9
Frame rate mode : Constant
Frame rate : 24.000 FPS
Color space : YUV
Chroma subsampling : 4:2:0
Bit depth : 8 bits
Scan type : Progressive
Bits/(Pixel*Frame) : 0.107
Stream size : 719 MiB (54%)
Writing library : x264 core 148 r2715 7e75228
Encoding settings : cabac=1 / ref=3 / deblock=1:0:0 / analyse=0x1:0x111 / me=umh / subme=10 / psy=1 / psy_rd=1.00:0.00 / mixed_ref=1 / me_range=24 / chroma_me=1 / trellis=2 / 8x8dct=0 / cqm=0 / deadzone=21,11 / fast_pskip=1 / chroma_qp_offset=-2 / threads=8 / lookahead_threads=1 / sliced_threads=0 / nr=0 / decimate=1 / interlaced=0 / bluray_compat=0 / stitchable=1 / constrained_intra=0 / bframes=2 / b_pyramid=0 / b_adapt=2 / b_bias=0 / direct=3 / weightb=1 / open_gop=0 / weightp=2 / keyint=48 / keyint_min=25 / scenecut=0 / intra_refresh=0 / rc_lookahead=48 / rc=2pass / mbtree=1 / bitrate=2370 / ratetol=1.0 / qcomp=0.50 / qpmin=6 / qpmax=51 / qpstep=4 / cplxblur=20.0 / qblur=0.5 / vbv_maxrate=3555 / vbv_bufsize=4740 / nal_hrd=vbr / filler=0 / ip_ratio=1.40 / aq=1:1.00
Default : Yes
Forced : No

Audio #1
ID : 2
Format : AC-3
Format/Info : Audio Coding 3
Commercial name : Dolby Digital
Codec ID : A_AC3
Duration : 43 min 52 s
Bit rate mode : Constant
Bit rate : 640 kb/s
Channel(s) : 6 channels
Channel layout : L R C LFE Ls Rs
Sampling rate : 48.0 kHz
Frame rate : 31.250 FPS (1536 SPF)
Bit depth : 16 bits
Compression mode : Lossy
Stream size : 201 MiB (15%)
Title : v1
Language : Russian
Service kind : Complete Main
Default : Yes
Forced : No

Audio #2
ID : 3
Format : AC-3
Format/Info : Audio Coding 3
Commercial name : Dolby Digital
Codec ID : A_AC3
Duration : 43 min 52 s
Bit rate mode : Constant
Bit rate : 640 kb/s
Channel(s) : 6 channels
Channel layout : L R C LFE Ls Rs
Sampling rate : 48.0 kHz
Frame rate : 31.250 FPS (1536 SPF)
Bit depth : 16 bits
Compression mode : Lossy
Stream size : 201 MiB (15%)
Title : v2 (song text)
Language : Russian
Service kind : Complete Main
Default : No
Forced : No

Audio #3
ID : 4
Format : E-AC-3
Format/Info : Enhanced AC-3
Commercial name : Dolby Digital Plus
Codec ID : A_EAC3
Duration : 43 min 52 s
Bit rate mode : Constant
Bit rate : 640 kb/s
Channel(s) : 6 channels
Channel layout : L R C LFE Ls Rs
Sampling rate : 48.0 kHz
Frame rate : 31.250 FPS (1536 SPF)
Compression mode : Lossy
Stream size : 201 MiB (15%)
Title : English
Language : English
Service kind : Complete Main
Default : No
Forced : No

Text #1
ID : 5
Format : UTF-8
Codec ID : S_TEXT/UTF8
Codec ID/Info : UTF-8 Plain Text
Duration : 1 min 1 s
Bit rate : 152 b/s
Count of elements : 16
Stream size : 1.14 KiB (0%)
Language : Russian
Default : No
Forced : No

Text #2
ID : 6
Format : UTF-8
Codec ID : S_TEXT/UTF8
Codec ID/Info : UTF-8 Plain Text
Duration : 41 min 39 s
Bit rate : 103 b/s
Count of elements : 847
Stream size : 31.6 KiB (0%)
Title : English [SDH]
Language : English
Default : No
Forced : No
скриншот  скриншот  скриншот  
pb.wtf



Скачать Лемони Сникет: 33 несчастья через торрент https://i84.fastpic.ru/big/2019/0122/3c/c9643af17b5c4f8048ee129df067c23c.png Скачать фильм Лемони Сникет: 33 несчастья через торрент бесплантно в хорошем качестве Описание: В центре внимания сериала - большая семья, которая пытается прийти в себя после страшного пожара, который разрушил их дом. ... 5 10 1
Торрент: Зарегистрирован [2019-01-22 06:43] · скачан: 26 раз
Статус: √ проверено
Размер: 8.77 GB
Как cкачать? Как скачать Лемони Сникет: 33 несчастья через торрент | qTorrent

28-11-2019 20:33  

Отключить всю рекламу на сайте

    Дорогой пользователь! Огромная просьба, поблагодарите релизера, оцените раздачу и оставьте свои комментарий, если Вы скачали Лемони Сникет: 33 несчастья через торрент бесплатно! Внесите свою лепту в развитие PiratBit!
    Комментировать посты могут только пользователи прошедшие не сложную регистрацию
    Показать сообщения:    

    Лемони Сникет: 33 несчастья через торрент
    Скачать бесплатно Лемони Сникет: 33 несчастья
    Лемони Сникет: 33 несчастья скачать торрент
    Лемони Сникет: 33 несчастья смотреть онлайн
    Cкачать фильм Лемони Сникет: 33 несчастья бесплатно
    Лемони Сникет: 33 несчастья скачать торрент в хорошем качестве
    Лемони Сникет: 33 несчастья смотреть онлайн бесплатно в хорошем качестве


    Вы не можете начинать темы
    Вы не можете отвечать на сообщения
    Вы не можете редактировать свои сообщения
    Вы не можете удалять свои сообщения
    Вы не можете голосовать в опросах
    Вы не можете прикреплять файлы к сообщениям
    Вы можете скачивать файлы