Ссылка на приватное зеркало всего за 1$. Внимание количество ограничено!!!

OK

1+1

iTunes

мы

OK

1

WEB-DLRip

Джокер

Пифагор

Ведьмак / The Witcher сериал

iTunes

ПШазам

ОК

Оно 2

iTunes

30
pack

Вам бонус

ВАЖНО

!!Акция!!

Alien_RageХит недели

RePack

Resident Evil 21

ИГРА 18+

pack

RePack

jed

RePack

fifa19

RePack

Assassins Creed: Odyssey

RePack

NEED FOR SPEED™ PAYBACK

4 сезон

9 сезон

Бесстыжие 9 сезон

Все сериалы

все сериалы на PB.wtf

RePack

FAR CRY 5
  

Хэллоуин у тети Этель / Halloween at Aunt Ethel's (Джозеф Маццаферро) [2018 г., Ужасы, Комедия, WEBRip,Любительский (двухголосый) HiWay Grope] pb.wtf

Хэллоуин у тети Этель через торрент pb.wtf

Размер: 1.09 GB | Добавлен: 1 год назад | Торрент скачан:113 раз
Скачать  

22-01-2019 09:28 Хэллоуин у тети Этель Скачать торрент  

Хэллоуин у тети Этель / Halloween at Aunt Ethel's
Год выпуска: 2018
Страна: США
Жанр: Ужасы, Комедия
Продолжительность: 01:20:36
Перевод: Любительский (двухголосый)HiWay Grope
Субтитры: Отсутствуют

Режиссер: Джозеф Маццаферро

rating

В ролях: Крис Кавалье, Лиза Макконнелл, Мадлен Мерфи, Шон Майкл Глория, Стефани Таун, Гейл Йост, Джейсон Хенне, Кирни Нельсон

Описание: Все в городе знают историю старой тети Этель. Говорят, она делает конфеты на Хэллоуин и тыквенный пирог из детей, которых она угощает. В этот Хэллоуин соседские подростки узнают правду.

Доп. информация: Реклама: присутствует

Качество: WEBRip
Формат: AVI
Видео кодек: XviD
Аудио кодек: AC3
Видео: XviD,720x304, 23.976 fps, ~1733 kbps, 0.33 bit/pixel
Аудио#1: AC3, 48 kHz, 2 ch, 192 Kbps
скриншот   скриншот   скриншот   скриншот  

General
Complete name : D:Halloween.At.Aunt.Ethels.2018.WEBRip.HiWayGropeHalloween.At.Aunt.Ethels.2018.WEBRip.HiWayGrope.avi
Format : AVI
Format/Info : Audio Video Interleave
File size : 1.09 GiB
Duration : 1 h 20 min
Overall bit rate : 1 935 kb/s
Writing application : VirtualDubMod 1.5.10.3 (build 2550/release)
Writing library : VirtualDubMod build 2550/release

Video
ID : 0
Format : MPEG-4 Visual
Format profile : Simple@L5
Format settings : BVOP1
Format settings, BVOP : 1
Format settings, QPel : No
Format settings, GMC : No warppoints
Format settings, Matrix : Default (MPEG)
Codec ID : XVID
Codec ID/Hint : XviD
Duration : 1 h 20 min
Bit rate : 1 733 kb/s
Width : 720 pixels
Height : 304 pixels
Display aspect ratio : 2.40:1
Frame rate : 23.976 (24000/1001) FPS
Color space : YUV
Chroma subsampling : 4:2:0
Bit depth : 8 bits
Scan type : Progressive
Compression mode : Lossy
Bits/(Pixel*Frame) : 0.330
Stream size : 999 MiB (90%)
Writing library : XviD 67

Audio
ID : 1
Format : AC-3
Format/Info : Audio Coding 3
Commercial name : Dolby Digital
Codec ID : 2000
Duration : 1 h 20 min
Bit rate mode : Constant
Bit rate : 192 kb/s
Channel(s) : 2 channels
Channel layout : L R
Sampling rate : 48.0 kHz
Frame rate : 31.250 FPS (1536 SPF)
Bit depth : 16 bits
Compression mode : Lossy
Stream size : 111 MiB (10%)
Alignment : Split accross interleaves
Interleave, duration : 42 ms (1.00 video frame)
Interleave, preload duration : 500 ms
Service kind : Complete Main

pb.wtf



Скачать Хэллоуин у тети Этель через торрент http://pic1.kartinco.top/images/12/cf2db.jpg Скачать фильм Хэллоуин у тети Этель через торрент бесплантно в хорошем качестве Описание: Все в городе знают историю старой тети Этель. Говорят, она делает конфеты на Хэллоуин и тыквенный пирог из детей, которых она ... 10 10 5
Торрент: Зарегистрирован [2019-01-22 09:28] · скачан: 113 раз
Статус: T временная
Размер: 1.09 GB
Как cкачать? Как скачать Хэллоуин у тети Этель через торрент | qTorrent

28-11-2019 20:33  

Отключить всю рекламу на сайте

22-01-2019 16:59 Хэллоуин у тети Этель Скачать торрент  

oleg8, просьба заменить в коде "скачать сэмпл" адрес трекера со старого на новый, то есть вместо

Код:

[url=http://sendfile.su/1469797][img]http://pb.wtf/images/sample.gif[/img][/url]

необходимо прописать

Код:

[url=http://sendfile.su/1469797][img]http://piratbit.сс/images/sample.gif[/img][/url]

На территории России piratbit.pw заблокирован, и картинка "скачать сэмпл" не отображается (см. скрин). Новый адрес трекера - piratbit.сс

скриншот  

пиратбит торрент трекер новый адрес piratbit.сс

Оформление (адрес трекера) поправил. Благодарю за раздачу.pb.wtf



23-01-2019 07:23 Хэллоуин у тети Этель Скачать торрент  

Подростку на последнем скрине лет 40 pb.wtf



23-01-2019 16:46 Хэллоуин у тети Этель Скачать торрент  

Он так и не стал взрослым в свои 40 лет. Но лицо у него отягащённое интелектом pb.wtf



    Дорогой пользователь! Огромная просьба, поблагодарите релизера, оцените раздачу и оставьте свои комментарий, если Вы скачали Хэллоуин у тети Этель через торрент бесплатно! Внесите свою лепту в развитие PiratBit!
    Комментировать посты могут только пользователи прошедшие не сложную регистрацию
    Показать сообщения:    

    Хэллоуин у тети Этель через торрент
    Скачать бесплатно Хэллоуин у тети Этель
    Хэллоуин у тети Этель скачать торрент
    Хэллоуин у тети Этель смотреть онлайн
    Cкачать фильм Хэллоуин у тети Этель бесплатно
    Хэллоуин у тети Этель скачать торрент в хорошем качестве
    Хэллоуин у тети Этель смотреть онлайн бесплатно в хорошем качестве


    Вы не можете начинать темы
    Вы не можете отвечать на сообщения
    Вы не можете редактировать свои сообщения
    Вы не можете удалять свои сообщения
    Вы не можете голосовать в опросах
    Вы не можете прикреплять файлы к сообщениям
    Вы можете скачивать файлы