Ссылка на приватное зеркало нашего сайта всего за 1$. Внимание количество ограничено!!!

2 сезон

iTunes

1 сезон

1

2 сезон

2 сезон

iTunes

1 сезон

RePack

30

Ultimate

ВАЖНО

ИГРА 18+

pack

RePack

MK11
pack

Забери бонус

RePack

jed

!!Акция!!

Alien_Rage

RePack

fifa19

RePack

Assassins Creed: Odyssey

RePack

NEED FOR SPEED™ PAYBACK

4 сезон

9 сезон

Бесстыжие 9 сезон

Все сериалы

все сериалы на PB.wtf

RePack

FAR CRY 5
  

Маньяк / Maniac / Сезон: 1 / Серии: 1-10 из 10 (Кэри Фукунага) [2018, Фантастика, драма, комедия, WEB-DLRip] [MVO] (TVShows) pb.wtf

Маньяк через торрент pb.wtf

Размер: 6.38 GB | Добавлен: 1 год 10 мес. назад | Торрент скачан:43 раза
Скачать  

22-01-2019 11:42 Маньяк Скачать торрент  

Маньяк | Maniac
Год выпуска: 2018
Страна: США
Жанр: Фантастика, драма, комедия
Продолжительность: ~ 00:40:00

Перевод: Профессиональный (многоголосый закадровый) TVShows

Режиссёр: Кэри Фукунага

В ролях: Джона Хилл, Билли Магнуссен, Соноя Мидзуно, Эмма Стоун, Седжал Шах, Аралин Андерсон, Александра Каррен, Кристиан ДеМараис, Джулия Гарнер, Рому Канда и др.
Описание: Энни Лендсберг и Оуэн Милгрим — два незнакомца, согласившиеся принять участие в испытании нового фармацевтического средства. У каждого на это свои причины. Энни пытается справиться с разрушенными отношениями, а Оуэн переживает из-за шизофрении, которую ему поставили ещё в детстве. Новое лекарство доктора Мантлрэя обещает исправить любое заболевание, вплоть до разбитого сердца. Только вот почему-то никто не хочет говорить о побочных эффектах.


Качество: WEB-DLRip
Формат: AVI
Видео: XVID, 720x304, 23.976 fps, ~2000 kb/s, ~0.3 bit/pixel
Аудио Rus: AC3, 48.0 KHz, 6 channels, 384 kbps
Субтитры: нет
General
Complete name : G:\Маньяк (Сезон 1) TVShows\Maniac.S01E01.WEB-DLRip.RGzsRutracker.Celta88.avi
Format : AVI
Format/Info : Audio Video Interleave
File size : 695 MiB
Duration : 40 min 39 s
Overall bit rate : 2 391 kb/s
Writing application : VirtualDubMod 1.5.10.3 | www.virtualdub-fr.org || (build 2550/release)
Writing library : VirtualDubMod build 2550/release

Video
ID : 0
Format : MPEG-4 Visual
Format profile : Advanced Simple@L5
Format settings, BVOP : 1
Format settings, QPel : No
Format settings, GMC : No warppoints
Format settings, Matrix : Custom
Codec ID : XVID
Codec ID/Hint : XviD
Duration : 40 min 39 s
Bit rate : 1 998 kb/s
Width : 720 pixels
Height : 304 pixels
Display aspect ratio : 2.35:1
Frame rate : 23.976 (24000/1001) FPS
Color space : YUV
Chroma subsampling : 4:2:0
Bit depth : 8 bits
Scan type : Progressive
Compression mode : Lossy
Bits/(Pixel*Frame) : 0.381
Stream size : 581 MiB (84%)
Writing library : XviD 73

Audio
ID : 1
Format : AC-3
Format/Info : Audio Coding 3
Mode extension : CM (complete main)
Format settings, Endianness : Big
Codec ID : 2000
Duration : 40 min 39 s
Bit rate mode : Constant
Bit rate : 384 kb/s
Channel(s) : 6 channels
Channel positions : Front: L C R, Side: L R, LFE
Sampling rate : 48.0 kHz
Frame rate : 31.250 FPS (1536 spf)
Bit depth : 16 bits
Compression mode : Lossy
Stream size : 112 MiB (16%)
Alignment : Split accross interleaves
Interleave, duration : 42 ms (1.00 video frame)
Interleave, preload duratio : 500 ms
скриншот  скриншот  скриншот  
pb.wtf



Скачать Маньяк через торрент https://i2.imageban.ru/out/2018/09/26/370dca92659201e85ebf05ac01a77d82.png Скачать фильм Маньяк через торрент бесплантно в хорошем качестве Описание: Энни Лендсберг и Оуэн Милгрим — два незнакомца, согласившиеся принять участие в испытании нового фармацевтического средства. У ... 10 10 3
Торрент: Зарегистрирован [2019-01-22 11:42] · скачан: 43 раз
Статус: √ проверено
Размер: 6.38 GB
Как cкачать? Как скачать Маньяк через торрент | qTorrent

% Раздел Тема Автор DL S | L
Зарубежные сериалы [ 7.86 GB ] Маньяк / Maniac / Сезон: 1 / Серии: 1-10 из 10 [2018 WEB-DLRip] [MVO] killermax2013 Скачать
1 | 0
Зарубежные сериалы [ 5.32 GB ] Помешанный / Маньяк / Maniac / Сезон: 1 / Серии: 1-10 из 10 [2014 WEBRip 720p] MVO [Good People] bober100 Скачать
1 | 0
Зарубежные сериалы [ 2.45 GB ] Маньяк / Помешанный / Maniac / Сезон: 1 / Серии: 1-10 из 10 [2014 WEB-DLRip] MVO [Good People] bober100 Скачать
1 | 0
Зарубежные сериалы [ 7.89 GB ] Маньяк / Maniac / Сезон: 1 / Серии: 1-10 из 10 [2018 WEB-DL 720p] [DVO] killermax2013 Скачать
2 | 0
Зарубежные сериалы [ 4.66 GB ] Маньяк / Maniac / Сезон: 1 / Серии: 1-10 из 10 [2018 WEBRip] MVO [LostFilm] bober100 Скачать
1 | 0
Зарубежные сериалы [ 36.81 GB ] Маньяк / Maniac / Сезон: 1 / Серии: 1-10 из 10 [2018 WEBRip 1080p] [MVO] killermax2013 Скачать
1 | 0
Зарубежные сериалы [ 13.32 GB ] Маньяк / Maniac / Сезон: 1 / Серии: 1-10 из 10 [2018 WEBRip 1080p] MVO [NewStudio] bober100 Скачать
3 | 0

28-11-2019 20:33  

Отключить всю рекламу на сайте

    Дорогой пользователь! Огромная просьба, поблагодарите релизера, оцените раздачу и оставьте свои комментарий, если Вы скачали Маньяк через торрент бесплатно! Внесите свою лепту в развитие PiratBit!
    Комментировать посты могут только пользователи прошедшие не сложную регистрацию
    Показать сообщения:    

    Маньяк через торрент
    Скачать бесплатно Маньяк
    Маньяк скачать торрент
    Маньяк смотреть онлайн
    Cкачать фильм Маньяк бесплатно
    Маньяк скачать торрент в хорошем качестве
    Маньяк смотреть онлайн бесплатно в хорошем качестве


    Вы не можете начинать темы
    Вы не можете отвечать на сообщения
    Вы не можете редактировать свои сообщения
    Вы не можете удалять свои сообщения
    Вы не можете голосовать в опросах
    Вы не можете прикреплять файлы к сообщениям
    Вы можете скачивать файлы