Ссылка на приватное зеркало нашего сайта всего за 1$. Внимание количество ограничено!!!

2 сезон

iTunes

1 сезон

1

2 сезон

2 сезон

iTunes

1 сезон

RePack

30

Ultimate

ВАЖНО

ИГРА 18+

pack

RePack

MK11
pack

Забери бонус

RePack

jed

!!Акция!!

Alien_Rage

RePack

fifa19

RePack

Assassins Creed: Odyssey

RePack

NEED FOR SPEED™ PAYBACK

4 сезон

9 сезон

Бесстыжие 9 сезон

Все сериалы

все сериалы на PB.wtf

RePack

FAR CRY 5
  

Посредник / Mr Inbetween / Сезон: 1 / Серии: 1-6 из 6 (Нэш Эдгертон) [2018, драма, криминал, WEB-DL 1080p] MVO [LostFilm] pb.wtf

Посредник через торрент pb.wtf

Размер: 13.23 GB | Добавлен: 2 года 1 мес. назад | Торрент скачан:42 раза
Скачать  

15-10-2018 14:03 Посредник Скачать торрент  

Посредник / Mr Inbetween Год выпуска: 2018
Страна: Австралия
Жанр: драма, криминал
Продолжительность: ~00:28:00
Перевод: Профессиональный (многоголосый закадровый) | LostFilm
Субтитры: нет

Режиссёр: Нэш Эдгертон

В ролях:

Скотт Райан, Дэймон Херриман, Джастин Росниак, Брук Сатчуэлл, Николас Кассим, Лиззи Шебеста, Джексон Тозер, Натали Трэн

Описание:

Сюжет австралийского криминально-драматического сериала «Посредник» (Mr Inbetween) разворачивается вокруг мужчины по имени Рэй Шусмит, в жизни которого все складывается просто замечательно. Во всяком случае, именно так кажется на первый взгляд. Несмотря на то, что Рэй не состоялся, как семейный человек, он замечательный отец, отличный любовник и прекрасный друг. Чтобы преуспевать во всех этих областях, Рэй прикладывает немалые усилия. При этом он как-то умудряется вполне неплохо совмещать личную жизнь и профессиональную деятельность. Казалось бы, здесь нет ничего особенного, ведь так делают многие. Вот только в случае с нашим героем все не так просто, ведь он работает наемным убийцей.

rating

Качество: WEB-DL 1080p | Без заставки и логотипа LostFilm.
Формат: AVI

Видео: 1920x1080 at 23.976 fps, MPEG-4 AVC, ~11600 kbps avg
Аудио#1: Russian: 48 kHz, AC3, 3/2 (L,C,R,l,r) + LFE ch, ~640 kbps avg |Многоголосый закадровый, LostFilm|
Аудио#2: English: 48 kHz, AC3, 3/2 (L,C,R,l,r) + LFE ch, ~640 kbps avg
скриншот  скриншот  скриншот  скриншот  

Общее
Уникальный идентификатор : 197585137304652071015324347292040350526 (0x94A583645B9C2DFBB9822F9C1F28CB3E)
Полное имя : D:\Mr.Inbetween.S01.1080p.AMZN.WEB-DL.H.264.RUS.LF.DD5.1\Mr.Inbetween.S01E01.Pee.Pee.Guy.1080p.AMZN.WEB-DL.H.264.RUS.LF.DD5.1.mkv
Формат : Matroska
Версия формата : Version 2
Размер файла : 2,62 Гбайт
Продолжительность : 28 м. 41 с.
Общий поток : 13,1 Мбит/сек
Дата кодирования : UTC 2018-10-03 04:57:36
Программа кодирования : mkvmerge v5.8.0 ('No Sleep / Pillow') built on Sep 2 2012 15:37:04
Библиотека кодирования : libebml v1.2.3 + libmatroska v1.3.0

Видео
Идентификатор : 1
Формат : AVC
Формат/Информация : Advanced Video Codec
Профиль формата : High@L4
Параметр CABAC формата : Да
Параметр RefFrames формата : 4 кадра
Режим смешивания : Header stripping
Идентификатор кодека : V_MPEG4/ISO/AVC
Продолжительность : 28 м. 41 с.
Битрейт : 11,6 Мбит/сек
Ширина : 1920 пикселей
Высота : 1080 пикселей
Соотношение сторон : 16:9
Режим частоты кадров : Постоянный
Частота кадров : 23,976 (24000/1001) кадра/сек
Цветовое пространство : YUV
Субдискретизация насыщенности : 4:2:0
Битовая глубина : 8 бит
Тип развёртки : Прогрессивная
Бит/(Пиксели*Кадры) : 0.232
Размер потока : 2,31 Гбайт (88%)
Язык : English
Default : Да
Forced : Нет
Цветовой диапазон : Limited
Основные цвета : BT.709
Характеристики трансфера : BT.709
Коэффициенты матрицы : BT.709

Аудио #1
Идентификатор : 2
Формат : AC-3
Формат/Информация : Audio Coding 3
Расширение режима : CM (complete main)
Параметр Endianness формата : Big
Режим смешивания : Header stripping
Идентификатор кодека : A_AC3
Продолжительность : 28 м. 41 с.
Вид битрейта : Постоянный
Битрейт : 640 Кбит/сек
Каналы : 6 каналов
Расположение каналов : Front: L C R, Side: L R, LFE
Частота : 48,0 КГц
Частота кадров : 31,250 кадров/сек (1536 spf)
Метод сжатия : С потерями
Размер потока : 131 Мбайт (5%)
Язык : Russian
Default : Да
Forced : Нет

Аудио #2
Идентификатор : 3
Формат : AC-3
Формат/Информация : Audio Coding 3
Расширение режима : CM (complete main)
Параметр Endianness формата : Big
Режим смешивания : Header stripping
Идентификатор кодека : A_AC3
Продолжительность : 28 м. 41 с.
Вид битрейта : Постоянный
Битрейт : 640 Кбит/сек
Каналы : 6 каналов
Расположение каналов : Front: L C R, Side: L R, LFE
Частота : 48,0 КГц
Частота кадров : 31,250 кадров/сек (1536 spf)
Метод сжатия : С потерями
Размер потока : 131 Мбайт (5%)
Язык : English
Default : Нет
Forced : Нет

pb.wtf



Скачать Посредник через торрент http://i91.fastpic.ru/big/2018/1008/dc/6bba1f738dbb39caf580691f8dbb51dc.jpg Скачать фильм Посредник через торрент бесплантно в хорошем качестве Описание: Сюжет австралийского криминально-драматического сериала «Посредник» (Mr Inbetween) разворачивается вокруг мужчины по имени Рэй ... 10 10 3
Торрент: Зарегистрирован [2018-10-15 14:03] · скачан: 42 раз
Статус: √ проверено
Размер: 13.23 GB
Как cкачать? Как скачать Посредник через торрент | qTorrent

% Раздел Тема Автор DL S | L
Зарубежные сериалы [ 2.16 GB ] Посредник / Решала / Mr Inbetween / Сезон: 1 / Серии: 1-6 из 6 [2018 WEB-DLRip] MVO [TVShows] bober100 Скачать
1 | 0
Зарубежные сериалы [ 3.64 GB ] Посредник / Решала / Mr Inbetween / Сезон: 1 / Серии: 1-6 из 6 [2018 WEB-DL 720p] [MVO] killermax2013 Скачать
1 | 0
Зарубежные сериалы [ 12.94 GB ] Посредник / Решала / Mr Inbetween / Сезон: 1 / Серии: 1-6 из 6 [2018 WEB-DL 1080p] [MVO] killermax2013 Скачать
1 | 0
Зарубежные сериалы [ 2.07 GB ] Посредник / Mr Inbetween / Сезон: 1 / Серии: 1-6 из 6 [2018 WEB-DLRip] MVO [LostFilm] bober100 Скачать
1 | 0
Зарубежные сериалы [ 3.34 GB ] Посредник / Мастер на все руки / Mr Inbetween / Сезон: 1 / Серии: 1-6 из 6 [2018 WEB-DL 720p] [MVO] killermax2013 Скачать
1 | 0

28-11-2019 20:33  

Отключить всю рекламу на сайте

    Дорогой пользователь! Огромная просьба, поблагодарите релизера, оцените раздачу и оставьте свои комментарий, если Вы скачали Посредник через торрент бесплатно! Внесите свою лепту в развитие PiratBit!
    Комментировать посты могут только пользователи прошедшие не сложную регистрацию
    Показать сообщения:    

    Посредник через торрент
    Скачать бесплатно Посредник
    Посредник скачать торрент
    Посредник смотреть онлайн
    Cкачать фильм Посредник бесплатно
    Посредник скачать торрент в хорошем качестве
    Посредник смотреть онлайн бесплатно в хорошем качестве


    Вы не можете начинать темы
    Вы не можете отвечать на сообщения
    Вы не можете редактировать свои сообщения
    Вы не можете удалять свои сообщения
    Вы не можете голосовать в опросах
    Вы не можете прикреплять файлы к сообщениям
    Вы можете скачивать файлы