Всегда рабочее зеркало просто перед .vidak.icu напиши любое слово или цифру, Пример http://6w0.vidak.icu

>

7.4

iTunes

7.4

2 сезон

6.6

iTunes

1

7.4

2 сезон

7.2

iTunes

6.0

MVO

13

6.1

iTunes

8.3

Пиратка

30

ULTIMATE

pack

9.9

Лицензия

ВАЖНО

ИГРА 18+

pack

7.3

RePack

MK11

7.7

RePack

jed

7.8

RePack

fifa19

8.5

RePack

RDR2

RePack

NEED FOR SPEED™ PAYBACK

1 сезон

9 сезон

Бесстыжие 9 сезон

Все сериалы

все сериалы на PB.wtf

RePack

FAR CRY 5

Anonymous, добрый день, мы катастрофически не успеваем собрать деньги на оплату серверов, помогите нам пожалуйста 5,10,15р., для нас важна любая помощь . В качестве благодарности мы отключим Вам всю рекламу на сайте (укажите свой ник в строку Ваше имя)!

×
  
Magnet ссылка

Ночь демонов / Night Of The Demons (Кевин Тенни) [1988 г., ужасы, комедия, BDRip 720p] 3xAVO pb.wtf

Ночь демонов через торрент pb.wtf

Размер: 6.09 GB | Добавлен: 3 года назад | Торрент скачан:18 раз
Смотреть онлайн Ночь демонов | Скачать    Ребята, помогите собрать деньги на оплату серверов!!!

22-01-2019 21:44 Ночь демонов Скачать торрент  

Ночь демонов / Night Of The Demons Год выпуска: 1988

Страна: США

Жанр: Ужасы, комедия

Продолжительность: 01:29:44

Перевод: Авторский (одноголосый)

Субтитры: Английские

Режиссер: Кевин Тенни

rating

В ролях: Элвин Алексис, Эллисон Баррон, Лэнс Фентон, Билли Галло, Хэл Хэвинс, Кэти Подвелл, Линни Куигли, Филип Танцини, Джилл Терашита, Харольд Эйер, Мэри Динн, Карен Эриксон, Амелия Кинкейд, Дон Джефкоат, Джеймс В. Куинн, Кларк Джарретт

Описание: Группа подростков собирается праздновать Хэллоуин, и для этого нужно подходящее место, ведь идти на обычный школьный бал-маскарад это неоригинально и неинтересно. И вот большая компания приезжает в старый заброшенный дом. Начало вечеринки довольно убогое - выпивка и танцы. Но к счастью организатор вечеринки Анджела придумала более подходящее к Хэллоуину развлечение - попытаться рассмотреть в зеркало свое прошлое. Одна из участниц вечеринки, увидев в зеркале демоническую морду, роняет его и таким образом освобождает нечисти путь в наш мир...
Качество: BDRip 720p
Формат: MKV
Видео кодек: MPEG-4 AVC
Аудио кодек: AC3
Видео: MPEG-4 AVC, 8500 Кбит/с, 1280x690
Аудио#1: Русский, AC3, 2 ch, 192 Кбит/с - Антон Карповский (нецензурный)
Аудио#2: Русский, AC3, 2 ch, 192 Кбит/с - Сергей Визгунов (со вставками Карповского)
Аудио#3: Русский, AC3, 2 ch, 192 Кбит/с - Павел Прямостанов (со вставками Карповского)
Аудио#4: Английский, AC3, 6 ch, 448 Кбит/сек
Аудио#5: Английский, AC3, ch, 192 Кбит/сек - комментарии режиссёра фильма Кевина Тенни
Видео
Идентификатор : 1
Формат : AVC
Формат/Информация : Advanced Video Codec
Профиль формата : High@L4.1
Настройки формата : CABAC / 9 Ref Frames
Параметр CABAC формата : Да
Параметр RefFrames формата : 9 кадров
Идентификатор кодека : V_MPEG4/ISO/AVC
Продолжительность : 1 ч. 29 м.
Битрейт : 8500 Кбит/сек
Ширина : 1280 пикселей
Высота : 690 пикселей
Соотношение сторон : 1,85:1
Режим частоты кадров : Постоянный
Частота кадров : 24,000 кадра/сек
Цветовое пространство : YUV
Субдискретизация насыщенности : 4:2:0
Битовая глубина : 8 бит
Тип развёртки : Прогрессивная
Бит/(Пиксели*Кадры) : 0.401
Размер потока : 5,33 Гбайт (87%)
Заголовок : Night.of.the.Demons.1988.Remastered.Uncut.BDRip.720p.x264-MM
Библиотека кодирования : x264 core 157 r2935 545de2f
Настройки программы : cabac=1 / ref=9 / deblock=1:-3:-3 / analyse=0x3:0x133 / me=umh / subme=11 / psy=1 / psy_rd=1.01:0.00 / mixed_ref=1 / me_range=48 / chroma_me=1 / trellis=2 / 8x8dct=1 / cqm=0 / deadzone=21,11 / fast_pskip=0 / chroma_qp_offset=-2 / threads=12 / lookahead_threads=3 / sliced_threads=0 / nr=0 / decimate=0 / interlaced=0 / bluray_compat=0 / constrained_intra=0 / bframes=12 / b_pyramid=2 / b_adapt=2 / b_bias=0 / direct=3 / weightb=1 / open_gop=1 / weightp=2 / keyint=250 / keyint_min=23 / scenecut=40 / intra_refresh=0 / rc_lookahead=60 / rc=2pass / mbtree=0 / bitrate=8500 / ratetol=1.0 / qcomp=0.60 / qpmin=0 / qpmax=69 / qpstep=4 / cplxblur=20.0 / qblur=0.5 / vbv_maxrate=50000 / vbv_bufsize=62500 / nal_hrd=none / filler=0 / ip_ratio=1.40 / pb_ratio=1.30 / aq=1:1.10
Язык : English
Default : Да
Forced : Нет

Аудио #1
Идентификатор : 2
Формат : AC-3
Формат/Информация : Audio Coding 3
Коммерческое название : Dolby Digital
Идентификатор кодека : A_AC3
Продолжительность : 1 ч. 29 м.
Вид битрейта : Постоянный
Битрейт : 192 Кбит/сек
Каналы : 2 канала
Channel layout : L R
Частота : 48,0 КГц
Частота кадров : 31,250 кадров/сек (1536 SPF)
Битовая глубина : 16 бит
Метод сжатия : С потерями
Размер потока : 123 Мбайт (2%)
Заголовок : AVO Антон Карповский
Язык : Russian
ServiceKind/String : Complete Main
Default : Да
Forced : Нет

Аудио #2
Идентификатор : 3
Формат : AC-3
Формат/Информация : Audio Coding 3
Коммерческое название : Dolby Digital
Идентификатор кодека : A_AC3
Продолжительность : 1 ч. 29 м.
Вид битрейта : Постоянный
Битрейт : 192 Кбит/сек
Каналы : 2 канала
Channel layout : L R
Частота : 48,0 КГц
Частота кадров : 31,250 кадров/сек (1536 SPF)
Битовая глубина : 16 бит
Метод сжатия : С потерями
Размер потока : 123 Мбайт (2%)
Заголовок : AVO Сергей Визгунов
Язык : Russian
ServiceKind/String : Complete Main
Default : Нет
Forced : Нет

Аудио #3
Идентификатор : 4
Формат : AC-3
Формат/Информация : Audio Coding 3
Коммерческое название : Dolby Digital
Идентификатор кодека : A_AC3
Продолжительность : 1 ч. 29 м.
Вид битрейта : Постоянный
Битрейт : 192 Кбит/сек
Каналы : 2 канала
Channel layout : L R
Частота : 48,0 КГц
Частота кадров : 31,250 кадров/сек (1536 SPF)
Битовая глубина : 16 бит
Метод сжатия : С потерями
Размер потока : 123 Мбайт (2%)
Заголовок : AVO Павел Прямостанов
Язык : Russian
ServiceKind/String : Complete Main
Default : Нет
Forced : Нет

Аудио #4
Идентификатор : 5
Формат : AC-3
Формат/Информация : Audio Coding 3
Коммерческое название : Dolby Digital
Идентификатор кодека : A_AC3
Продолжительность : 1 ч. 29 м.
Вид битрейта : Постоянный
Битрейт : 448 Кбит/сек
Каналы : 6 каналов
Channel layout : L R C LFE Ls Rs
Частота : 48,0 КГц
Частота кадров : 31,250 кадров/сек (1536 SPF)
Битовая глубина : 16 бит
Метод сжатия : С потерями
Размер потока : 288 Мбайт (5%)
Заголовок : Original
Язык : English
ServiceKind/String : Complete Main
Default : Нет
Forced : Нет

Аудио #5
Идентификатор : 6
Формат : AC-3
Формат/Информация : Audio Coding 3
Коммерческое название : Dolby Digital
Идентификатор кодека : A_AC3
Продолжительность : 1 ч. 29 м.
Вид битрейта : Постоянный
Битрейт : 192 Кбит/сек
Каналы : 2 канала
Channel layout : L R
Частота : 48,0 КГц
Частота кадров : 31,250 кадров/сек (1536 SPF)
Битовая глубина : 16 бит
Метод сжатия : С потерями
Размер потока : 123 Мбайт (2%)
Заголовок : Commentary with Director Kevin Tenney, Actors Linnea Quigley and Philip Tanzini, and Casting Director Tedra Gabriel
Язык : English
ServiceKind/String : Complete Main
Default : Нет
Forced : Нет

Текст
Идентификатор : 7
Формат : UTF-8
Идентификатор кодека : S_TEXT/UTF8
Идентификатор кодека/Информация : UTF-8 Plain Text
Продолжительность : 1 ч. 22 м.
Битрейт : 49 бит/сек
ElementCount : 1039
Размер потока : 30,1 Кбайт (0%)
Заголовок : SDH
Язык : English
Default : Нет
Forced : Нет

Меню
00:00:00.000 : :Chapter 01
00:03:27.708 : :Chapter 02
00:10:15.166 : :Chapter 03
00:15:53.250 : :Chapter 04
00:21:52.958 : :Chapter 05
00:27:36.083 : :Chapter 06
00:37:02.708 : :Chapter 07
00:45:34.416 : :Chapter 08
00:55:03.416 : :Chapter 09
01:00:17.416 : :Chapter 10
01:11:25.083 : :Chapter 11
01:18:37.875 : :Chapter 12
01:29:44.166 : :Chapter 13

скриншот   скриншот   скриншот   скриншот   скриншот  

pb.wtf



Скачать Ночь демонов через торрент https://i1.imageban.ru/out/2019/01/23/a08a69fa9b8d520dc202bb115b9792d4.gif Скачать, смотреть онлайн Ночь демонов бесплантно в хорошем качестве Описание: Группа подростков собирается праздновать Хэллоуин, и для этого нужно подходящее место, ведь идти на обычный школьный бал-маскарад ... 10 10 2
Info! Серебряная раздача, засчитывается только 50% скачанного.
Торрент: Зарегистрирован [2019-01-22 21:44] · скачан: 18 раз
Статус: √ проверено
Размер: 6.09 GB
Как cкачать? Как скачать Ночь демонов через торрент | UTorrent

28-11-2019 20:33  

Отключить всю рекламу на сайте

    Дорогой пользователь! Огромная просьба, поблагодарите релизера, оцените раздачу и оставьте свои комментарий, если Вы скачали Ночь демонов через торрент бесплатно!
    Комментировать посты могут только пользователи прошедшие не сложную регистрацию
    Показать сообщения:    

    Ночь демонов через торрент
    Скачать бесплатно Ночь демонов
    Ночь демонов скачать торрент
    Ночь демонов смотреть онлайн
    Cкачать фильм Ночь демонов бесплатно
    Ночь демонов скачать торрент в хорошем качестве
    Ночь демонов смотреть онлайн бесплатно в хорошем качестве


    Вы не можете начинать темы
    Вы не можете отвечать на сообщения
    Вы не можете редактировать свои сообщения
    Вы не можете удалять свои сообщения
    Вы не можете голосовать в опросах
    Вы не можете прикреплять файлы к сообщениям
    Вы можете скачивать файлы