новый адрес
Ссылка на приватное зеркало всего за 1$. Внимание количество ограничено!!!

iTunes

1+1

iTunes

мы

WEB-DL

1

iTunes

Чернобыль

iTunes

Ральф против интернета

Лицензия

ПШазам

Лицензия

Оно 2

Лицензия

30
pack

Вам бонус

ВАЖНО

!!Акция!!

Alien_RageХит недели

RePack

Resident Evil 21

ИГРА 18+

pack

RePack

jed

!!Акция!!

Alien_Rage

RePack

fifa19

RePack

Assassins Creed: Odyssey

RePack

NEED FOR SPEED™ PAYBACK

3 сезон

9 сезон

Бесстыжие 9 сезон

Все сериалы

все сериалы на PB.wtf

RePack

FAR CRY 5
Ребята, катастрофически не хватает 1900р. для оплаты серверов за Октябрь (всвязи с блокировками трафик упал в 3 раза), 1-2р., выручайте.
  

Молодо-зелено (Константин Воинов) [1962, СССР, мелодрама, DVDRip от AVP Studio] pb.wtf

Молодо-зелено через торрент pb.wtf

Размер: 744 MB | Добавлен: 10 мес. назад | Торрент скачан:6 раз
Скачать  

23-01-2019 10:02 Молодо-зелено Скачать торрент  

Молодо-зелено
Страна: СССР
Производство: Мосфильм

Жанр: мелодрама
Год выпуска: 1962
Продолжительность: 01:30:47

Перевод: Не требуется
Cубтитры: нет
Оригинальная аудиодорожка: русский

Режиссер: Константин Воинов

В ролях:
Олег Табаков, Ада Шереметьева, Иван Переверзев, Валентин Грачёв (II), Юрий Никулин, Евгений Евстигнеев, Владимир Земляникин, Людмила Крылова, Михаил Ульянов, Дмитрий Масанов, Виктор Кольцов (Кутаков)...
Об актёрах подробней

Описание:
По мотивам произведений А.Рекемчука.
Картина Воинова, по точному замечанию писателя Андрея Битова, рассказывает о поколении, которое безоглядно отправилось в дальние дали, как поется в песне, «за туманом и за запахом тайги»… На фоне реконструкции кирпичного завода молодого таёжного города Джигорска разворачивается история о том, как молодой специалист Николай Бабушкин помогает инженеру-изобретателю Черемных реализовать свой проект. Там же он встречает и свою любовь — выпускницу архитектурного института Ирину, которая тоже приехала на стройку.

Источник: DVD5 R5
Качество видео: DVDRip
Формат видео: AVI

Видео: 688х336 (2,048:1), 25 fps, XviD ~ 945 kbps avg, 0.163 bit/pixel
Аудио: 48 kHz, Dolby Digital AC3 2.0, 192 kbps

Раздача от:
Юрий Никулин, сыгравший в фильме «Молодо-зелено», вспоминал, что съемки проходили в атмосфере небывало энтузиазма. Режиссеру приходилось буквально разгонять актеров со съемочной площадки на отдых. Никулин придумал для своего героя забавный эпизод, но, к большому сожалению, Воинов, смеявшийся до слез, глядя на актера, эпизод выкинул, из-за того, что герой Никулина был «под мухой».
Для Юрия Никулина это уже десятая роль после небольшого эпизода в картине «Девушка с гитарой». Здесь он сыграл роль мелодраматическую, и сыграл великолепно — просто и, в то же время, очень ярко. Романтическая линия на первый взгляд выглядит чуточку странной. Николай, совершенно случайно, увидел девушку Ирину — главного архитектора молодого таёжного города Джигора — потом ещё раз, а потом неожиданно для себя оказался в центре треугольника. Если и не любовного — то близкого к нему.
Общее
Полное имя : Molodo-zeleno.1962.DVDRip_[New-team]_by_AVP_Studio.avi
Формат : AVI
Формат/Информация : Audio Video Interleave
Размер файла : 744 Мбайт
Продолжительность : 1 ч. 30 м.
Общий поток : 1146 Кбит/сек
Программа кодирования : VirtualDubMod 1.5.10.3 | www.virtualdub-fr.org || (build 2550/release)
Библиотека кодирования : VirtualDubMod build 2550/release

Видео
Идентификатор : 0
Формат : MPEG-4 Visual
Профиль формата : Advanced Simple@L5
Настройки формата : BVOP1 / Custom Matrix
Параметр BVOP формата : 1
Параметр QPel формата : Нет
Параметр GMC формата : Без точки перехода
Параметр матрицы формата : Выборочная
Идентификатор кодека : XVID
Идентификатор кодека/Подсказка : XviD
Продолжительность : 1 ч. 30 м.
Битрейт : 945 Кбит/сек
Ширина : 688 пикселей
Высота : 336 пикселей
Соотношение сторон : 2,048
Частота кадров : 25,000 кадров/сек
Цветовое пространство : YUV
Субдискретизация насыщенности : 4:2:0
Битовая глубина : 8 бит
Тип развёртки : Прогрессивная
Метод сжатия : С потерями
Бит/(Пиксели*Кадры) : 0.163
Размер потока : 613 Мбайт (82%)
Библиотека кодирования : XviD 73

Аудио
Идентификатор : 1
Формат : AC-3
Формат/Информация : Audio Coding 3
Коммерческое название : Dolby Digital
Идентификатор кодека : 2000
Продолжительность : 1 ч. 30 м.
Вид битрейта : Постоянный
Битрейт : 192 Кбит/сек
Каналы : 2 канала
Channel layout : L R
Частота : 48,0 КГц
Частота кадров : 31,250 кадров/сек (1536 SPF)
Битовая глубина : 16 бит
Метод сжатия : С потерями
Размер потока : 125 Мбайт (17%)
Выравнивание : Разделение по промежуткам
Продолжительность промежутка : 40 мс. (1,00 видеокадр)
Время предзагрузки промежутка : 500 мс
pb.wtf



Скачать Молодо-зелено через торрент http://picplus.ru/img/1901/23/603bfb73.png Скачать фильм Молодо-зелено через торрент бесплантно в хорошем качестве Описание:По мотивам произведений А.Рекемчука.Картина Воинова, по точному замечанию писателя Андрея Битова, рассказывает о поколении, ... 5 10 1
Info! Золотая раздача, скачанное не засчитывается.
Торрент: Зарегистрирован [2019-01-23 10:02] · скачан: 6 раз
Статус: √ проверено
Размер: 744 MB
Как cкачать? Как скачать Молодо-зелено через торрент | qTorrent

% Раздел Тема Автор DL S | L
Кино СССР [ 744 MB ] Молодо-зелено [1962 СССР DVDRip-AVC от AVP Studio] AVP Studio Скачать
1 | 0

28-11-2019 20:33  

Отключить всю рекламу на сайте

    Дорогой пользователь! Огромная просьба, поблагодарите релизера, оцените раздачу и оставьте свои комментарий, если Вы скачали Молодо-зелено через торрент бесплатно! Внесите свою лепту в развитие PiratBit!
    Комментировать посты могут только пользователи прошедшие не сложную регистрацию
    Показать сообщения:    

    Молодо-зелено через торрент
    Скачать бесплатно Молодо-зелено
    Молодо-зелено скачать торрент
    Молодо-зелено смотреть онлайн
    Cкачать фильм Молодо-зелено бесплатно
    Молодо-зелено скачать торрент в хорошем качестве
    Молодо-зелено смотреть онлайн бесплатно в хорошем качестве


    Вы не можете начинать темы
    Вы не можете отвечать на сообщения
    Вы не можете редактировать свои сообщения
    Вы не можете удалять свои сообщения
    Вы не можете голосовать в опросах
    Вы не можете прикреплять файлы к сообщениям
    Вы можете скачивать файлы