MEGA SALE -50% FORZA HORIZON 4 ULTIMATE+ВСЕ DLC+ОНЛАЙН всего за 599р. 299 руб. (супер цена). Внимание количество ограничено!!!

iTunes

1+1

iTunes

мы

iTunes

1

iTunes

Чернобыль

iTunes

Ральф против интернета

Лицензия

ПШазам

Лицензия

Игра престолов

Лицензия

30
pack

ВАЖНО

!!Акция!!

Alien_RageХит недели

RePack

Resident Evil 21

ИГРА 18+

pack

RePack

Metro:Exodus

!!Акция!!

Alien_Rage

RePack

fifa19

RePack

Assassins Creed: Odyssey

RePack

NEED FOR SPEED™ PAYBACK

3 сезон

9 сезон

Бесстыжие 9 сезон

Все сериалы

все сериалы на PB.wtf

RePack

FAR CRY 5
Ребята, катастрофически не хватает 7730р. для оплаты серверов за АВГУСТ (всвязи с блокировками трафик упал в 3 раза), 1-2р., выручайте.
  

Гранд Тур / The Grand Tour / Сезон: 3 / Серии: 1-14 из 14 [2019., Авто-шоу, WEBRip 1080p] [MVO] (Jaskier) pb.wtf

Гранд Тур через торрент pb.wtf

Размер: 59.22 GB | Добавлен: 4 мес. 26 д. назад | Торрент скачан:6 раз
Скачать  

23-01-2019 12:57 Гранд Тур Скачать торрент  

Гранд Тур | The Grand Tour

Год выпуска: 2019
Страна: США, Великобритания
Жанр: Автошоу
Продолжительность: ~ 01:10:00
Перевод: Профессиональный (многоголосый закадровый) | - Jaskier
В ролях: Джереми Кларксон, Ричард Хаммонд и Джэймс Мэй
Описание: Предлагаем вашему вниманию долгожданный многими фанатами автомобилей проект с легендарными ведущими Джереми Кларксоном, Джеймом Мэйем и Ричардом Хаммондом. В центре внимания проекта оказываются автомобили со всего света. Ведущие отправляются в большое путешествие по миру, чтобы найти раритетные модели авто или же невероятные суперкары. В каждом новом городе будет снят очередной эпизод этого шоу, а ведущие проведут тест драйв местных автомобилей, рассказав о них кое-что по-настоящему интересное. На улице любителей "Топ Гира" огромный праздник - "Гранд Тур" вашему вниманию!




Качество: WEBRip 1080p
Формат: MKV
Видео: 1920x1080 (16:9) | X264 | ~8100 kbps | 25 fps
Аудио 1: AC3 | 48 KHz | 5.1 (Front: L С R Side: L R) + LFE | ~384 kbps [RUS]
Аудио 2: AC3 | 48 KHz | 5.1 (Front: L С R Side: L R) + LFE | ~384 kbps [ENG]
Субтитры: английские
Перевод и озвучка студия Jaskier
Общее
Уникальный идентификатор : 196339968933755912032422829190040153123 (0x93B5B3D9FC82A3A7AE4ECB51DA826C23)
Полное имя : G:\Загрузки\The.Grand.Tour.S03E01.1080p.AMZN.WEBRip.DD5.1.x264-Jaskier.mkv
Формат : Matroska
Версия формата : Version 2
Размер файла : 4,34 Гбайт
Продолжительность : 1 ч. 8 м.
Общий поток : 9016 Кбит/сек
Дата кодирования : UTC 2019-01-22 22:14:28
Программа кодирования : mkvmerge v7.8.0 ('River Man') 32bit built on Apr 3 2015 12:11:22
Библиотека кодирования : libebml v1.3.1 + libmatroska v1.4.2

Видео
Идентификатор : 1
Формат : AVC
Формат/Информация : Advanced Video Codec
Профиль формата : High@L4
Настройки формата : CABAC / 4 Ref Frames
Параметр CABAC формата : Да
Параметр RefFrames формата : 4 кадра
Идентификатор кодека : V_MPEG4/ISO/AVC
Продолжительность : 1 ч. 8 м.
Битрейт : 8069 Кбит/сек
Ширина : 1920 пикселей
Высота : 1080 пикселей
Соотношение сторон : 16:9
Режим частоты кадров : Постоянный
Частота кадров : 25,000 кадров/сек
Цветовое пространство : YUV
Субдискретизация насыщенности : 4:2:0
Битовая глубина : 8 бит
Тип развёртки : Прогрессивная
Бит/(Пиксели*Кадры) : 0.156
Размер потока : 3,88 Гбайт (89%)
Язык : English
Default : Да
Forced : Нет
Цветовой диапазон : Limited
Основные цвета : BT.709
Характеристики трансфера : BT.709
Коэффициенты матрицы : BT.709

Аудио #1
Идентификатор : 2
Формат : AC-3
Формат/Информация : Audio Coding 3
Коммерческое название : Dolby Digital
Идентификатор кодека : A_AC3
Продолжительность : 1 ч. 8 м.
Вид битрейта : Постоянный
Битрейт : 384 Кбит/сек
Каналы : 6 каналов
Channel layout : L R C LFE Ls Rs
Частота : 48,0 КГц
Частота кадров : 31,250 кадров/сек (1536 SPF)
Битовая глубина : 16 бит
Метод сжатия : С потерями
Размер потока : 189 Мбайт (4%)
Заголовок : Jaskier
Язык : Russian
ServiceKind/String : Complete Main
Default : Да
Forced : Нет

Аудио #2
Идентификатор : 3
Формат : AC-3
Формат/Информация : Audio Coding 3
Коммерческое название : Dolby Digital
Идентификатор кодека : A_AC3
Продолжительность : 1 ч. 8 м.
Вид битрейта : Постоянный
Битрейт : 384 Кбит/сек
Каналы : 6 каналов
Channel layout : L R C LFE Ls Rs
Частота : 48,0 КГц
Частота кадров : 31,250 кадров/сек (1536 SPF)
Битовая глубина : 16 бит
Метод сжатия : С потерями
Размер потока : 189 Мбайт (4%)
Язык : English
ServiceKind/String : Complete Main
Default : Нет
Forced : Нет

Текст
Идентификатор : 4
Формат : UTF-8
Идентификатор кодека : S_TEXT/UTF8
Идентификатор кодека/Информация : UTF-8 Plain Text
Язык : English
Default : Нет
Forced : Нет
скриншот  скриншот  скриншот  
Когда раздача ведётся путём добавления новых серий, при каждом добавлении создётся новый торрент. Чтобы начать докачку новой серии, пользователям необходимо сделать следующее:
(1) остановить скачивание,
(2) удалить старый торрент у себя из клиента (старые серии удалять не надо),
(3) скачать новый торрент и запустить его у себя в клиенте вместо старого, при этом указать клиенту путь в старую папку, куда и должно происходить скачивание новых серий.
Ваш клиент при этом должен произвести хеширование (проверку) старой папки (если не производит сам - помогите ему сделать это), и будет докачивать только те серии, которых у вас ещё нет. Старые серии при этом не удаляются, а продолжают раздаваться!
Eсли вы уже удалили старые серии, то предотвратить повторную закачку старых серий можно, отжав галочку в соответсвующих местах при запуске нового торрента. По возможности, желательно не удалять старые серии как можно дольше, чтобы релизёр не столько продолжал раздавать старые серии, а смог сконцентрироваться на новых.

pb.wtf



Скачать Гранд Тур через торрент https://i106.fastpic.ru/big/2019/0123/dc/68b23d65b01129ad95a6d93fd03b75dc.png Скачать фильм Гранд Тур через торрент бесплантно в хорошем качестве Описание: Предлагаем вашему вниманию долгожданный многими фанатами автомобилей проект с легендарными ведущими Джереми Кларксоном, Джеймом ... 5.5 10 2
Торрент: Зарегистрирован [2019-04-25 18:00] · скачан: 6 раз
Статус: √ проверено
Размер: 59.22 GB
Как cкачать? Как скачать Гранд Тур через торрент | qTorrent

% Раздел Тема Автор DL S | L
Автоспорт [ 102.65 GB ] Гранд Тур / The Grand Tour / Сезон: 3 / Серии: 1-14 из 14 [2019 Авто-шоу UHD WEBRip 2160p] [HDR10] MVO [AlexFilm] bober100 Скачать
1 | 0
Автоспорт [ 20.77 GB ] Гранд Тур / The Grand Tour / Сезон 3 / Серии 1-14 из 14 [2019. Авто-шоу WEB-DLRip] [MVO] killermax2013 Скачать
2 | 0
Автоспорт [ 66.91 GB ] Гранд Тур / The Grand Tour / Сезон: 3 / Серии: 1-14 из 14 [2019 Авто-шоу WEB-DL 1080p] MVO [AlexFilm] bober100 Скачать
1 | 0
Автоспорт [ 40.44 GB ] Гранд Тур / The Grand Tour / Сезон: 3 / Серии: 1-14 из 14 [2019 Авто-шоу WEB-DL 720p] MVO [AlexFilm] bober100 Скачать
6 | 1
Автоспорт [ 63.13 GB ] Гранд Тур / The Grand Tour / Сезон 3 / Серии 1-14 из 14 [2019. Авто-шоу WEBRip 1080p] [MVO] killermax2013 Скачать
1 | 0
Автоспорт [ 10.75 GB ] Гранд Тур / The Grand Tour / Сезон: 3 / Серии: 1-14 из 14 [2019. Авто-шоу WEBRip] [MVO] killermax2013 Скачать
2 | 0
Автоспорт [ 35 GB ] Гранд Тур / The Grand Tour / Сезон: 3 / Серии: 1-14 из 14 [2019. Авто-шоу WEBRip 720p] [MVO] killermax2013 Скачать
1 | 0


>> Регистрируемся здесь <<






Отзывы и комментарии о схеме читаем и пишем здесь: ---> Отзывы и комментарии о схеме

Новые благодарочки в телеграм довольных пользователей:
скриншот   скриншот   скриншот   скриншот   скриншот
    Дорогой пользователь! Огромная просьба, поблагодарите релизера, оцените раздачу и оставьте свои комментарий, если Вы скачали Гранд Тур через торрент бесплатно! Внесите свою лепту в развитие PiratBit!
    Комментировать посты могут только пользователи прошедшие не сложную регистрацию
    Показать сообщения:    

    Гранд Тур через торрент
    Скачать бесплатно Гранд Тур
    Гранд Тур скачать торрент
    Гранд Тур смотреть онлайн
    Cкачать фильм Гранд Тур бесплатно
    Гранд Тур скачать торрент в хорошем качестве
    Гранд Тур смотреть онлайн бесплатно в хорошем качестве


    Вы не можете начинать темы
    Вы не можете отвечать на сообщения
    Вы не можете редактировать свои сообщения
    Вы не можете удалять свои сообщения
    Вы не можете голосовать в опросах
    Вы не можете прикреплять файлы к сообщениям
    Вы можете скачивать файлы