Ссылка на приватное зеркало нашего сайта всего за 1$. Внимание количество ограничено!!!

2 сезон

iTunes

1 сезон

1

2 сезон

2 сезон

iTunes

1 сезон

RePack

30

Новинка

ВАЖНО

ИГРА 18+

pack

RePack

MK11
pack

Забери бонус

RePack

jed

!!Акция!!

Alien_Rage

RePack

fifa19

RePack

Assassins Creed: Odyssey

RePack

NEED FOR SPEED™ PAYBACK

4 сезон

9 сезон

Бесстыжие 9 сезон

Все сериалы

все сериалы на PB.wtf

RePack

FAR CRY 5
  

Чёрный понедельник / Black Monday / Сезон: 1 / Серии: 1-10 из 10 (Эван Голдберг, Сет Роген) [2019, Комедия, WEB-DL 720p] [DVO] (Кубик в Кубе) pb.wtf

Чёрный понедельник через торрент pb.wtf

Размер: 12.84 GB | Добавлен: 1 год 7 мес. назад | Торрент скачан:30 раз
Скачать  

23-01-2019 21:29 Чёрный понедельник Скачать торрент  

Чёрный понедельник / Black Monday

Год выпуска: 2019
Страна: США
Жанр: Комедия
Продолжительность: ~ 00:35:00
Субтитры: английские

Перевод: Профессиональный (двухголосый закадровый)*Кубик в Кубе*

Режиссёр: Эван Голдберг, Сет Роген
В ролях:Дон Чидл, Эндрю Рэннеллс, Пол Шир, Реджина Холл, Юджин Кордеро, Кадим Хардисон, Курт Браунолер, Эдвин Гэйджиано
Описание:События сериала разворачиваются вскоре после «Черного понедельника» — 19 октября 1987 года, когда произошел крупнейший обвал фондового рынка в истории Уолл-стрит. Группа финансистов-любителей находит способ заработать на финансовой катастрофе, в одночасье превратив свою унылую жизнь в сплошной праздник.
rating

Релиз -- CasStudio
Работа со звуком: Messafan

Качество: WEB-DL 720p
Формат: MKV
Видео: 1280x720 (16:9) | X264 | ~2338 kbps | 23.976 fps
Аудио 1: AC3, 48,0 КГц, 6 ch, 384 kbps - [RUS]
Аудио 2: AC3, 48,0 КГц, 6 ch, 384 kbps - [ENG]
General
Unique ID : 172546370604835286670225562654700493016 (0x81CF38E1BA15617788378AB4E57C58D8)
Complete name : F:\Black.Monday.S01.720p.WEB.CasStudio.TV\Black.Monday.S01E01.365.720p.WEBDL.KvK.CasStudio.TV.mkv
Format : Matroska
Format version : Version 4 / Version 2
File size : 794 MiB
Duration : 35 min 43 s
Overall bit rate : 3 108 kb/s
Movie name : Black Monday 01x01 (365) - release by messafan for CasStudio.TV
Encoded date : UTC 2019-01-23 17:57:09
Writing application : mkvmerge v6.7.0 ('Back to the Ground') 64bit built on Jan 8 2014 15:10:52
Writing library : libebml v1.3.0 + libmatroska v1.4.1

Video
ID : 1
Format : AVC
Format/Info : Advanced Video Codec
Format profile : High@L3.1
Format settings : CABAC / 5 Ref Frames
Format settings, CABAC : Yes
Format settings, RefFrames : 5 frames
Codec ID : V_MPEG4/ISO/AVC
Duration : 35 min 43 s
Bit rate : 2 278 kb/s
Width : 1 280 pixels
Height : 720 pixels
Display aspect ratio : 16:9
Frame rate mode : Constant
Frame rate : 23.976 (24000/1001) FPS
Color space : YUV
Chroma subsampling : 4:2:0
Bit depth : 8 bits
Scan type : Progressive
Bits/(Pixel*Frame) : 0.103
Stream size : 582 MiB (73%)
Default : Yes
Forced : No
Color range : Limited
Color primaries : BT.709
Transfer characteristics : BT.709
Matrix coefficients : BT.709

Audio #1
ID : 2
Format : AC-3
Format/Info : Audio Coding 3
Format settings, Endianness : Big
Codec ID : A_AC3
Duration : 35 min 43 s
Bit rate mode : Constant
Bit rate : 384 kb/s
Channel(s) : 6 channels
Channel positions : Front: L C R, Side: L R, LFE
Sampling rate : 48.0 kHz
Frame rate : 31.250 FPS (1536 SPF)
Bit depth : 16 bits
Compression mode : Lossy
Stream size : 98.1 MiB (12%)
Title : KvK 5.1
Language : Russian
Service kind : Complete Main
Default : Yes
Forced : No

Audio #2
ID : 3
Format : AC-3
Format/Info : Audio Coding 3
Format settings, Endianness : Big
Codec ID : A_AC3
Duration : 35 min 43 s
Bit rate mode : Constant
Bit rate : 384 kb/s
Channel(s) : 6 channels
Channel positions : Front: L C R, Side: L R, LFE
Sampling rate : 48.0 kHz
Frame rate : 31.250 FPS (1536 SPF)
Bit depth : 16 bits
Compression mode : Lossy
Stream size : 98.1 MiB (12%)
Title : English 5.1
Language : English
Service kind : Complete Main
Default : No
Forced : No

Text #1
ID : 4
Format : UTF-8
Codec ID : S_TEXT/UTF8
Codec ID/Info : UTF-8 Plain Text
Title : Eng sub
Language : English
Default : No
Forced : No

Text #2
ID : 5
Format : UTF-8
Codec ID : S_TEXT/UTF8
Codec ID/Info : UTF-8 Plain Text
Title : SDH
Language : English
Default : No
Forced : No
скриншот  скриншот  скриншот  
Когда раздача ведётся путём добавления новых серий, при каждом добавлении создётся новый торрент. Чтобы начать докачку новой серии, пользователям необходимо сделать следующее:
(1) остановить скачивание,
(2) удалить старый торрент у себя из клиента (старые серии удалять не надо),
(3) скачать новый торрент и запустить его у себя в клиенте вместо старого, при этом указать клиенту путь в старую папку, куда и должно происходить скачивание новых серий.
Ваш клиент при этом должен произвести хеширование (проверку) старой папки (если не производит сам - помогите ему сделать это), и будет докачивать только те серии, которых у вас ещё нет. Старые серии при этом не удаляются, а продолжают раздаваться!
Eсли вы уже удалили старые серии, то предотвратить повторную закачку старых серий можно, отжав галочку в соответсвующих местах при запуске нового торрента. По возможности, желательно не удалять старые серии как можно дольше, чтобы релизёр не столько продолжал раздавать старые серии, а смог сконцентрироваться на новых.

pb.wtf



Скачать Чёрный понедельник через торрент https://i109.fastpic.ru/big/2019/0116/e2/50e70304964facdcecb67905f187e7e2.jpg Скачать фильм Чёрный понедельник через торрент бесплантно в хорошем качестве Описание:События сериала разворачиваются вскоре после «Черного понедельника» — 19 октября 1987 года, когда произошел крупнейший обвал ... 8.2 10 5
Торрент: Зарегистрирован [2019-04-16 18:10] · скачан: 30 раз
Статус: √ проверено
Размер: 12.84 GB
Как cкачать? Как скачать Чёрный понедельник через торрент | qTorrent

% Раздел Тема Автор DL S | L
Зарубежные сериалы [ 13.1 GB ] Чёрный понедельник / Black Monday / Сезон: 2 / Серии: 1-10 из 10 [2020 WEB-DL 720p] MVO [AlexFilm] bober100 Скачать
1 | 0
Зарубежные сериалы [ 2.68 GB ] Чёрный понедельник / Black Monday / Сезон: 2 / Серии: 1-2 из 10 [2020 WEB-DL 720p] [MVO] killermax2013 Скачать
1 | 0
Зарубежные сериалы [ 21.37 GB ] Чёрный понедельник / Black Monday / Сезон: 2 / Серии: 1-10 из 10 [2020 WEB-DL 1080p] MVO [AlexFilm] bober100 Скачать
1 | 0
Зарубежные сериалы [ 22.51 GB ] Чёрный понедельник / Black Monday / Сезон: 2 / Серии: 1-10 из 10 [2020 WEB-DL 1080p] [MVO] killermax2013 Скачать
2 | 0
Зарубежные сериалы [ 34.46 GB ] Чёрный понедельник / Black Monday / Сезон: 1 / Серии: 1-10 из 10 [2019 WEBRip 1080p] [MVO] killermax2013 Скачать
1 | 0
Зарубежные сериалы [ 3.5 GB ] Чёрный понедельник / Black Monday / Сезон: 1 / Серии: 1-10 из 10 [2019 WEB-DLRip] MVO [AlexFilm] bober100 Скачать
1 | 0
Зарубежные сериалы [ 27.61 GB ] Чёрный понедельник / Black Monday / Сезон: 1 / Серии: 1-10 из 10 [2019 WEB-DL 1080p] MVO [TVShows] bober100 Скачать
1 | 0

28-11-2019 20:33  

Отключить всю рекламу на сайте

    Дорогой пользователь! Огромная просьба, поблагодарите релизера, оцените раздачу и оставьте свои комментарий, если Вы скачали Чёрный понедельник через торрент бесплатно! Внесите свою лепту в развитие PiratBit!
    Комментировать посты могут только пользователи прошедшие не сложную регистрацию
    Показать сообщения:    

    Чёрный понедельник через торрент
    Скачать бесплатно Чёрный понедельник
    Чёрный понедельник скачать торрент
    Чёрный понедельник смотреть онлайн
    Cкачать фильм Чёрный понедельник бесплатно
    Чёрный понедельник скачать торрент в хорошем качестве
    Чёрный понедельник смотреть онлайн бесплатно в хорошем качестве


    Вы не можете начинать темы
    Вы не можете отвечать на сообщения
    Вы не можете редактировать свои сообщения
    Вы не можете удалять свои сообщения
    Вы не можете голосовать в опросах
    Вы не можете прикреплять файлы к сообщениям
    Вы можете скачивать файлы