1 сезон

1 сезон

iTunes

1

КиноПоиск HD

Кинопоиск HD

iTunes

13

1 сезон

RePack

30

Новинка

ВАЖНО

ИГРА 18+

pack

RePack

MK11
pack

Легкие деньги

RePack

jed

RePack

fifa19

RePack

RDR2

RePack

NEED FOR SPEED™ PAYBACK

4 сезон

9 сезон

Бесстыжие 9 сезон

Все сериалы

все сериалы на PB.wtf

RePack

FAR CRY 5
  
Magnet ссылка

Враг у ворот / Enemy at the Gates (Жан-Жак Анно) [2001 г., Драма, военный, история, BDRip-AVC] MVO | DUB pb.wtf

Враг у ворот через торрент pb.wtf

Размер: 1.84 GB | Добавлен: 2 года 2 мес. назад | Торрент скачан:26 раз
Скачать  

24-01-2019 02:57 Враг у ворот Скачать торрент  


Враг у ворот / Enemy at the Gates
Год выхода: 2001
Выпущено: | Великобритания, Франция, Германия, Италия, США
Жанр: Драма, военный, история
Продолжительность: 02:11:01
Перевод: Профессиональный (многоголосый, закадровый) + Профессиональный (полное дублирование)
Режиссер: Жан-Жак Анно

В ролях: Джуд Лоу, Эд Харрис, Рейчел Вайс, Джозеф Файнc, Боб Хоскинс, Рон Перлман, Ева Маттес, Гэбриел Томсон, Маттиас Хабих, Софи Роиз
Описание: 1942 год, разгар Сталинградской битвы. Немецкое командование направляет на передовую своего лучшего стрелка, майора Кенига, с особым заданием. Этот опытный и терпеливый профессионал — единственный, кто может попытаться справиться с русским «ангелом смерти» — неуловимым снайпером Василием Зайцевым.
Зайцев — легенда и икона для защитников Сталинграда. Каждый день он выносит смертный приговор десяткам захватчиков, попавших в перекрестье его прицела. Между двумя уникальными снайперами начинается смертельная схватка, победителем из которой будет суждено выйти лишь одному

Качество: BDRip-AVC
Формат: MKV
Видео кодек: x264
Аудио кодек: ac3
Видео: 1024x424 (2.40:1), 23,976 fps, ~1114 Кbps, 0.107 bit/pixel
Аудио#1: AC3, 448 Кбит/сек, 6 каналов, 48.0 КГц - многоголосый
Аудио#2: AC3, 448 Кбит/сек, 6 каналов, 48.0 КГц - дубляж
Субтитры: Нет

Размер: 1.84 gb

скриншот   скриншот   скриншот   скриншот   скриншот   скриншот   скриншот   скриншот  
General
Unique ID : 222843067814018490658794982108819100320 (0xA7A603832AFBB370990BB700363C12A0)
Complete name : E:\RIP_d\RIP_d\Enemy_at_the_Gates_2001_BDRip_AVC_1,84_Gb.mkv
Format : Matroska
Format version : Version 4 / Version 2
File size : 1.84 GiB
Duration : 2 h 11 min
Overall bit rate : 2 011 kb/s
Movie name : Enemy at the Gates (2001) AVC rip by *Rzhavec*
Encoded date : UTC 2019-01-24 02:27:34
Writing application : mkvmerge v7.1.0 ('Good Love') 64bit built on Jul 27 2014 13:06:55
Writing library : libebml v1.3.0 + libmatroska v1.4.1

Video
ID : 1
Format : AVC
Format/Info : Advanced Video Codec
Format profile : High@L3.1
Format settings, CABAC : Yes
Format settings, RefFrames : 2 frames
Codec ID : V_MPEG4/ISO/AVC
Duration : 2 h 11 min
Bit rate : 1 114 kb/s
Width : 1 024 pixels
Height : 424 pixels
Display aspect ratio : 2.40:1
Frame rate mode : Constant
Frame rate : 23.976 (24000/1001) FPS
Color space : YUV
Chroma subsampling : 4:2:0
Bit depth : 8 bits
Scan type : Progressive
Bits/(Pixel*Frame) : 0.107
Stream size : 1.02 GiB (55%)
Language : French
Default : Yes
Forced : No

Audio #1
ID : 2
Format : AC-3
Format/Info : Audio Coding 3
Format settings, Endianness : Big
Codec ID : A_AC3
Duration : 2 h 11 min
Bit rate mode : Constant
Bit rate : 448 kb/s
Channel(s) : 6 channels
Channel positions : Front: L C R, Side: L R, LFE
Sampling rate : 48.0 kHz
Frame rate : 31.250 FPS (1536 SPF)
Bit depth : 16 bits
Compression mode : Lossy
Delay relative to video : 1 s 0 ms
Stream size : 420 MiB (22%)
Title : mvo
Language : Russian
Service kind : Complete Main
Default : Yes
Forced : No

Audio #2
ID : 3
Format : AC-3
Format/Info : Audio Coding 3
Format settings, Endianness : Big
Codec ID : A_AC3
Duration : 2 h 10 min
Bit rate mode : Constant
Bit rate : 448 kb/s
Channel(s) : 6 channels
Channel positions : Front: L C R, Side: L R, LFE
Sampling rate : 48.0 kHz
Frame rate : 31.250 FPS (1536 SPF)
Bit depth : 16 bits
Compression mode : Lossy
Delay relative to video : 13 s 0 ms
Stream size : 419 MiB (22%)
Title : dub
Language : Russian
Service kind : Complete Main
Default : No
Forced : No


pb.wtf



Скачать Враг у ворот через торрент https://i109.fastpic.ru/big/2019/0124/00/391cb61a0a8bf738e044751b2eada100.png Скачать фильм Враг у ворот через торрент бесплантно в хорошем качестве Описание: 1942 год, разгар Сталинградской битвы. Немецкое командование направляет на передовую своего лучшего стрелка, майора Кенига, с ... 10 10 3
Торрент: Зарегистрирован [2019-01-24 05:21] · скачан: 26 раз
Статус: # сомнительно
Размер: 1.84 GB
Как cкачать? Как скачать Враг у ворот через торрент | UTorrent

% Раздел Тема Автор DL S | L
Фильмы [HD 720p, 1080p] (Хороший звук DUB, MVO) [ 10.32 GB ] Враг у ворот / Enemy at the Gates [2001 военный история BDRip-HEVC 1080p] DUB + MVO + DVO + AVO RealOldGamer Скачать
1 | 0

28-11-2019 20:33  

Отключить всю рекламу на сайте

24-01-2019 06:56 Враг у ворот Скачать торрент  

Rzhavec, скриншоты перезалил. Обратите внимание, скриншоты должны открываться в полный размер без перехода на сайт фотохостинга, подробнее здесь: Видео. Изменения в правилах заливки скриншотов!
В отчете МИ остутствуют настройки программы кодирования, статус раздачи # сомнительно.

Запрет на размещение рипов ненадлежащего качества в разделе ФИЛЬМЫ (MKV-AVC рипы)pb.wtf



    Дорогой пользователь! Огромная просьба, поблагодарите релизера, оцените раздачу и оставьте свои комментарий, если Вы скачали Враг у ворот через торрент бесплатно! Внесите свою лепту в развитие PiratBit!
    Комментировать посты могут только пользователи прошедшие не сложную регистрацию
    Показать сообщения:    

    Враг у ворот через торрент
    Скачать бесплатно Враг у ворот
    Враг у ворот скачать торрент
    Враг у ворот смотреть онлайн
    Cкачать фильм Враг у ворот бесплатно
    Враг у ворот скачать торрент в хорошем качестве
    Враг у ворот смотреть онлайн бесплатно в хорошем качестве


    Вы не можете начинать темы
    Вы не можете отвечать на сообщения
    Вы не можете редактировать свои сообщения
    Вы не можете удалять свои сообщения
    Вы не можете голосовать в опросах
    Вы не можете прикреплять файлы к сообщениям
    Вы можете скачивать файлы